<?xml version="1.0" standalone="no"?>
<!DOCTYPE svg PUBLIC "-//W3C//DTD SVG 1.1//EN" "http://www.w3.org/Graphics/SVG/1.1/DTD/svg11.dtd">
<svg xmlns="http://www.w3.org/2000/svg">
<defs >
<font id="Spectral" horiz-adv-x="575" ><font-face
    font-family="Spectral"
    units-per-em="1000"
    panose-1="2 2 8 2 6 0 0 0 0 0"
    ascent="1059"
    descent="-463"
    alphabetic="0" />
<glyph unicode=" " glyph-name="uni0020" horiz-adv-x="245" />
<glyph unicode="!" glyph-name="uni0021" horiz-adv-x="257" d="M101 218L124 660H261L129 218H101ZM81 -5Q52 -5 38 11T24 54Q24 83 44 106T95 130Q124 130 138 114T152 72Q152 40 133 18T81 -5Z" />
<glyph unicode="&quot;" glyph-name="uni0022" horiz-adv-x="438" d="M142 490L147 740H250L167 490H142ZM330 490L335 740H438L355 490H330Z" />
<glyph unicode="#" glyph-name="uni0023" horiz-adv-x="561" d="M41 0L125 207H46L53 251H143L207 407H113L120 451H225L310 660H358L273 451H387L472 660H520L435 451H513L506 407H417L353 251H446L439 207H335L251 0H203L287 207H173L89 0H41ZM191 251H305L369
407H255L191 251Z" />
<glyph unicode="$" glyph-name="uni0024" horiz-adv-x="561" d="M160 -80L174 0Q147 8 126 21T93 47Q60 85 60 123Q60 148 74 160T105 172H148L153 168L149 141Q138 79 183 53L225 300Q219 304 212 308Q165 336 139 372T113 463Q113 510 136 550T198 620T287 661L301
740H340L328 669Q341 670 355 670Q370 670 384 669L396 740H435L422 663Q446 657 463 647T493 625Q511 609 521 591T532 554Q532 531 519 519T490 506H444L439 510L444 537Q452 586 412 607L372 376Q437 337 465 298T493 203Q493 123 441 69T307 -3L294 -80H255L267
-9Q253 -10 239 -10Q225 -10 211 -8L199 -80H160ZM343 620Q331 620 319 618L286 426Q297 419 309 412T337 396L375 618Q360 620 343 620ZM219 517Q219 481 251 452L278 606Q252 594 236 572T219 517ZM241 39Q259 39 276 42L311 247Q301 254 288 262T261 279L220
40Q230 39 241 39ZM380 151Q380 192 346 222L317 55Q346 69 363 93T380 151Z" />
<glyph unicode="%" glyph-name="uni0025" horiz-adv-x="763" d="M166 345Q110 345 80 384T49 493Q49 541 62 587T101 670T160 728T236 750Q292 750 322 711T353 601Q353 553 340 508T301 425T242 367T166 345ZM153 459Q153 421 158 398T181 375Q199 375 212 402T234
472T247 560T251 639Q251 674 245 697T221 720Q203 720 190 693T169 624T157 538T153 459ZM64 19L666 750L704 721L101 -10L64 19ZM539 -10Q483 -10 453 29T422 138Q422 186 435 232T474 315T533 373T609 395Q665 395 695 356T726 246Q726 198 713 153T674 70T615
12T539 -10ZM526 104Q526 66 531 43T554 20Q572 20 585 47T607 117T620 205T624 284Q624 319 618 342T594 365Q576 365 563 338T542 269T530 183T526 104Z" />
<glyph unicode="&amp;" glyph-name="uni0026" horiz-adv-x="789" d="M222 -10Q135 -10 82 32T29 148Q29 222 76 268T204 348Q177 387 164 419T151 487Q151 572 206 621T356 670Q434 670 482 636T531 545Q531 494 487 456T341 385Q346 378 352 370L490 188Q493
184 496 180Q546 242 592 333L506 372L509 388H743L740 372L652 335Q619 281 587 235T521 150Q560 105 594 85T662 65Q697 65 724 85H727L737 72Q711 32 669 11T582 -10Q534 -10 498 7T427 60Q381 26 331 8T222 -10ZM269 537Q269 511 281 481T324 408Q368 437 390
476T413 554Q413 586 397 607T346 629Q311 629 290 603T269 537ZM152 184Q152 124 184 86T279 48Q341 48 401 89Q390 102 376 120L233 308Q226 317 220 325Q188 302 170 266T152 184Z" />
<glyph unicode="&apos;" glyph-name="uni0027" horiz-adv-x="250" d="M142 490L147 740H250L167 490H142Z" />
<glyph unicode="(" glyph-name="uni0028" horiz-adv-x="271" d="M174 -150Q122 -70 98 20T73 207Q73 310 104 406T192 587T322 740H342V737Q249 616 194 475T138 176Q138 84 150 6T194 -147V-150H174Z" />
<glyph unicode=")" glyph-name="uni0029" horiz-adv-x="271" d="M-71 -150V-147Q22 -26 77 116T133 414Q133 506 121 584T77 737V740H97Q149 660 173 571T198 383Q198 280 167 184T79 3T-51 -150H-71Z" />
<glyph unicode="*" glyph-name="uni002A" horiz-adv-x="360" d="M69 474L191 573L57 592L91 665L204 600L202 740H279L228 600L362 665L375 592L232 573L318 472L247 429L208 554L125 428L69 474Z" />
<glyph unicode="+" glyph-name="uni002B" horiz-adv-x="561" d="M478 246H297L265 62H208L240 246H59L68 298H250L282 482H339L307 298H488L478 246Z" />
<glyph unicode="," glyph-name="uni002C" horiz-adv-x="251" d="M-5 -193V-167Q51 -140 74 -113T98 -52Q98 -30 89 -14T62 13L33 31L32 42L74 97Q90 118 100 118Q108 118 122 109Q150 92 163 65T177 6Q177 -50 133 -101T-5 -193Z" />
<glyph unicode="-" glyph-name="uni002D" horiz-adv-x="354" d="M37 225L48 289H317L306 225H37Z" />
<glyph unicode="." glyph-name="uni002E" horiz-adv-x="251" d="M88 -5Q59 -5 46 11T32 54Q32 83 52 106T103 130Q132 130 146 114T160 72Q160 42 141 19T88 -5Z" />
<glyph unicode="/" glyph-name="uni002F" horiz-adv-x="284" d="M-60 -120L293 750H344L-9 -120H-60Z" />
<glyph unicode="0" glyph-name="uni0030" horiz-adv-x="561" d="M221 -10Q137 -10 92 52T47 227Q47 312 69 391T132 533T225 633T339 670Q423 670 468 608T514 433Q514 348 492 269T429 127T336 27T221 -10ZM242 38Q265 38 285 65T322 138T350 240T368 357T374
472Q374 542 362 582T319 622Q296 622 276 595T239 523T212 421T194 304T188 189Q188 119 199 79T242 38Z" />
<glyph unicode="1" glyph-name="uni0031" horiz-adv-x="561" d="M90 0L94 16L188 57L274 545L110 468L118 510L358 660H426L321 57L399 16L396 0H90Z" />
<glyph unicode="2" glyph-name="uni0032" horiz-adv-x="561" d="M14 0L21 37Q115 130 178 197T280 314T339 399T367 466T374 529Q374 568 352 593T291 618Q249 618 225 589T193 505L186 464L175 452H117Q99 452 91 457T87 491Q92 520 111 550T173 610Q197 626
220 640T272 662T346 670Q394 670 431 652T491 601T513 524Q513 485 498 449T443 368T333 261T153 109H390L464 212H480L436 0H14Z" />
<glyph unicode="3" glyph-name="uni0033" horiz-adv-x="561" d="M204 -10Q154 -10 118 3T60 35Q21 66 21 108Q21 138 31 149T60 160H124L131 150L126 115Q118 74 139 54T206 34Q264 34 300 80T337 205Q337 257 306 287T212 318H152L161 365H190Q240 365 279 388T340
450T362 538Q362 579 345 602T294 626Q257 626 233 604T202 537L196 494L185 483H126Q110 483 102 487T94 508Q94 566 165 617Q200 642 236 656T322 670Q376 670 416 652T479 602T501 532Q501 488 476 452T408 392T308 358Q392 347 435 307T478 205Q478 161 456
122T396 54T309 7T204 -10Z" />
<glyph unicode="4" glyph-name="uni0034" horiz-adv-x="561" d="M226 0L257 175H5L11 206L413 660H475L404 251H513L500 175H390L360 0H226ZM109 251H270L311 485L109 251Z" />
<glyph unicode="5" glyph-name="uni0035" horiz-adv-x="561" d="M185 -10Q102 -10 60 15T19 66Q21 81 42 95L100 135H113L122 109Q134 75 154 56T216 36Q269 36 304 75T340 180Q340 312 179 312Q156 312 136 310T89 303L155 660H492L472 559H187L164 430Q180 431
199 432T243 433Q356 433 413 381T471 243Q471 193 449 148T388 67T297 11T185 -10Z" />
<glyph unicode="6" glyph-name="uni0036" horiz-adv-x="561" d="M238 -10Q141 -10 88 46T35 197Q35 306 91 402T252 569T508 670L501 636Q415 608 354 559T253 448T194 319Q222 355 258 374T338 394Q413 394 449 348T486 230Q486 156 453 103T364 20T238 -10ZM171
157Q171 96 190 66T244 36Q291 36 321 87T352 222Q352 322 283 322Q223 322 181 262Q171 210 171 157Z" />
<glyph unicode="7" glyph-name="uni0037" horiz-adv-x="561" d="M76 0Q115 69 162 144T275 313T431 533H104L126 660H544L537 622Q476 530 416 434T301 231T202 0H76Z" />
<glyph unicode="8" glyph-name="uni0038" horiz-adv-x="561" d="M227 -10Q136 -10 81 30T26 137Q26 199 69 243T188 325Q141 361 123 395T104 473Q104 527 134 571T215 643T330 670Q412 670 461 628T511 523Q511 472 473 435T363 366Q427 322 450 281T474 192Q474
132 441 87T352 16T227 -10ZM232 523Q232 503 238 482T264 439T324 391Q358 415 376 435T402 478T410 532Q410 578 388 602T326 626Q279 626 256 595T232 523ZM132 143Q132 91 160 63T236 34Q286 34 316 63T347 142Q347 174 336 198T297 247T221 301Q186 274 167
252T140 204T132 143Z" />
<glyph unicode="9" glyph-name="uni0039" horiz-adv-x="561" d="M39 -10L46 24Q133 53 194 102T294 213T353 341Q325 306 289 286T209 266Q133 266 97 312T61 430Q61 504 94 557T183 640T308 670Q406 670 459 614T512 463Q512 354 456 258T293 92T39 -10ZM195
438Q195 338 264 338Q324 338 367 399Q376 451 376 503Q376 564 357 594T303 624Q256 624 226 573T195 438Z" />
<glyph unicode=":" glyph-name="uni003A" horiz-adv-x="251" d="M88 -5Q59 -5 46 11T32 54Q32 83 52 106T103 130Q132 130 146 114T160 72Q160 42 141 19T88 -5ZM147 328Q118 328 105 344T91 387Q91 416 111 439T162 463Q191 463 205 447T219 405Q219 375 200
352T147 328Z" />
<glyph unicode=";" glyph-name="uni003B" horiz-adv-x="251" d="M153 328Q124 328 111 344T97 387Q97 416 117 439T168 463Q197 463 211 447T225 405Q225 375 206 352T153 328ZM11 -193V-167Q67 -140 90 -113T114 -52Q114 -30 105 -14T78 13L49 31L48 42L90 97Q106
118 116 118Q124 118 138 109Q166 92 179 65T193 6Q193 -50 149 -101T11 -193Z" />
<glyph unicode="&lt;" glyph-name="uni003C" horiz-adv-x="561" d="M438 62L51 247L59 297L511 482L501 422L129 270L447 117L438 62Z" />
<glyph unicode="=" glyph-name="uni003D" horiz-adv-x="561" d="M498 348H79L88 400H508L498 348ZM462 144H43L52 196H472L462 144Z" />
<glyph unicode="&gt;" glyph-name="uni003E" horiz-adv-x="561" d="M109 482L496 297L488 247L36 62L46 122L418 274L99 427L109 482Z" />
<glyph unicode="?" glyph-name="uni003F" horiz-adv-x="397" d="M153 215Q130 238 116 264T102 321Q102 359 118 383T161 422T216 447T271 466T313 486T330 516Q330 536 315 548T276 565T227 570Q217 570 200 569T171 565L131 557L117 562L90 625Q85 637 85 644Q85
655 97 662T146 670Q185 670 225 656T299 617T355 559T376 488Q376 447 361 422T321 383T269 359T218 339T178 312T162 267Q162 252 167 241T179 219L153 215ZM130 -5Q101 -5 88 11T74 54Q74 83 94 106T145 130Q174 130 188 114T202 72Q202 42 183 19T130 -5Z"
/>
<glyph unicode="@" glyph-name="uni0040" horiz-adv-x="800" d="M366 -118Q273 -118 203 -83T93 17T54 168Q54 248 85 319T171 445T298 531T454 562Q544 562 609 526T710 427T746 284Q746 236 731 190T685 105T613 44T517 21Q426 21 437 122Q400 70 367 46T292
21Q258 21 235 49T211 132Q211 194 233 248T291 342T372 406T462 429Q508 429 538 407L582 424H600L548 133Q542 98 547 85T572 71Q604 71 632 101T678 179T696 281Q696 352 664 408T572 498T432 532Q340 532 272 486T166 361T128 186Q128 100 161 40T254 -53T393
-86Q458 -86 508 -71T601 -27L611 -49Q558 -82 501 -100T366 -118ZM326 179Q326 138 334 119T363 100Q385 100 405 119T444 163L479 368Q469 378 458 384T431 390Q400 390 377 360T340 282T326 179Z" />
<glyph unicode="A" glyph-name="uni0041" horiz-adv-x="717" d="M-33 0L-30 16L28 47L379 665H458L587 51L645 16L641 0H352L354 16L441 52L408 219H187L92 50L167 16L163 0H-33ZM216 272H398L350 511L216 272Z" />
<glyph unicode="B" glyph-name="uni0042" horiz-adv-x="658" d="M-14 0L-11 16L74 57L170 603L99 644L102 660H378Q476 660 537 626T599 522Q599 469 556 422T436 356Q518 344 559 305T601 204Q601 153 568 106T471 30T309 0H-14ZM341 607H308L265 364H304Q378
364 416 403T455 500Q455 552 430 579T341 607ZM319 317H257L210 53H291Q346 53 382 73T435 128T453 203Q453 261 422 289T319 317Z" />
<glyph unicode="C" glyph-name="uni0043" horiz-adv-x="665" d="M325 -10Q239 -10 177 25T82 121T48 260Q48 342 79 415T165 546T293 637T449 670Q508 670 545 657T622 622L602 435H585L520 593Q503 608 484 615T435 623Q381 623 336 594T259 515T210 397T192
254Q192 156 234 98T350 40Q380 40 408 49T462 74L571 211H588L548 42Q506 18 450 4T325 -10Z" />
<glyph unicode="D" glyph-name="uni0044" horiz-adv-x="747" d="M-14 0L-11 16L72 56L168 604L99 644L102 660H364Q478 660 553 625T665 527T703 382Q703 309 674 241T589 119T457 32T284 0H-14ZM342 608H307L208 49H295Q374 49 433 91T526 208T560 384Q560 488
504 548T342 608Z" />
<glyph unicode="E" glyph-name="uni0045" horiz-adv-x="623" d="M-14 0L-11 16L74 57L170 603L99 644L102 660H600L570 487H554L507 607H309L266 364H402L474 451H490L451 232H435L394 317H257L210 53H437L536 204H552L516 0H-14Z" />
<glyph unicode="F" glyph-name="uni0046" horiz-adv-x="601" d="M-14 0L-11 16L74 57L170 603L99 644L102 660H596L566 487H550L503 607H309L265 364H396L467 451H483L444 232H428L388 317H257L211 57L308 16L305 0H-14Z" />
<glyph unicode="G" glyph-name="uni0047" horiz-adv-x="709" d="M311 -10Q232 -10 173 24T81 119T48 258Q48 343 82 417T174 549T306 638T457 670Q503 670 536 665T596 649T651 622L629 446H613L550 592Q528 608 506 615T452 623Q395 623 347 593T264 510T210
391T191 252Q191 156 234 102T348 47Q364 47 383 49T421 55L453 237L379 284L382 300H670L667 284L590 236L562 74Q530 48 486 30T396 1T311 -10Z" />
<glyph unicode="H" glyph-name="uni0048" horiz-adv-x="771" d="M-14 0L-11 16L71 57L168 603L95 644L98 660H387L384 644L305 603L264 367H520L562 603L494 644L497 660H785L782 644L699 603L602 57L676 16L673 0H385L388 16L465 57L511 314H254L209 57L277 16L274
0H-14Z" />
<glyph unicode="I" glyph-name="uni0049" horiz-adv-x="378" d="M-14 0L-11 16L71 57L168 603L95 644L98 660H393L390 644L305 603L209 57L283 16L280 0H-14Z" />
<glyph unicode="J" glyph-name="uni004A" horiz-adv-x="388" d="M-39 -173Q-60 -173 -70 -161T-72 -125L-53 -69H-47Q-34 -74 -24 -76T0 -78Q22 -78 38 -68T67 -26T92 73L186 603L109 644L111 660H406L403 644L324 603L256 233Q236 125 193 46T100 -83Q64 -119
42 -138T2 -165T-39 -173Z" />
<glyph unicode="K" glyph-name="uni004B" horiz-adv-x="721" d="M-14 0L-11 16L74 57L170 603L99 644L102 660H397L393 644L308 603L211 57L284 16L280 0H-14ZM468 0L262 334L559 609L496 644L499 660H714L710 644L649 620L385 380L599 52L657 16L654 0H468Z" />
<glyph unicode="L" glyph-name="uni004C" horiz-adv-x="581" d="M-14 0L-11 16L74 57L170 603L99 644L102 660H406L403 644L308 603L211 53H402L514 236H530L486 0H-14Z" />
<glyph unicode="M" glyph-name="uni004D" horiz-adv-x="934" d="M-14 0L-11 16L74 57L190 603L109 644L113 660H344L455 192L711 660H930L926 644L842 604L779 57L843 16L840 0H561L564 16L643 56L697 516L410 -5H358L234 529L137 56L211 16L208 0H-14Z" />
<glyph unicode="N" glyph-name="uni004E" horiz-adv-x="761" d="M-11 0L-8 16L78 57L174 602L102 644L105 660H279L552 205L622 604L522 644L526 660H777L774 644L689 603L582 -5H521L221 487L146 57L245 16L242 0H-11Z" />
<glyph unicode="O" glyph-name="uni004F" horiz-adv-x="774" d="M336 -10Q245 -10 181 26T82 126T48 275Q48 356 77 427T160 553T283 639T437 670Q528 670 592 634T691 534T726 385Q726 305 698 234T617 108T494 22T336 -10ZM355 40Q406 40 447 68T519 146T565
261T581 398Q581 497 541 558T421 620Q372 620 331 592T259 515T211 401T194 263Q194 198 213 148T268 69T355 40Z" />
<glyph unicode="P" glyph-name="uni0050" horiz-adv-x="636" d="M-14 0L-11 16L74 57L170 603L99 644L102 660H368Q621 660 621 501Q621 446 586 399T480 324T303 295H253L211 57L299 16L296 0H-14ZM308 607L261 342H320Q400 342 437 386T475 495Q475 550 441
578T341 607H308Z" />
<glyph unicode="Q" glyph-name="uni0051" horiz-adv-x="774" d="M608 -149Q571 -149 522 -138T416 -96T296 -8Q217 0 162 38T77 136T48 275Q48 356 77 427T160 553T283 639T437 670Q528 670 592 634T691 534T726 385Q726 298 692 221T597 88T453 7Q511 -41 550
-65T619 -98T682 -107Q698 -107 713 -105T738 -98L731 -122Q708 -134 677 -141T608 -149ZM355 40Q406 40 447 68T519 146T565 261T581 398Q581 497 541 558T421 620Q372 620 331 592T259 515T211 401T194 263Q194 198 213 148T268 69T355 40Z" />
<glyph unicode="R" glyph-name="uni0052" horiz-adv-x="685" d="M-14 0L-12 16L74 57L170 603L98 644L101 660H363Q472 660 533 621T595 510Q595 449 554 406T441 338L569 56L629 16L627 0H442L317 307H255L211 58L281 16L278 0H-14ZM338 607H308L263 354H316Q360
354 391 373T438 425T455 497Q455 607 338 607Z" />
<glyph unicode="S" glyph-name="uni0053" horiz-adv-x="540" d="M206 -10Q145 -10 102 3T18 41L37 210H54L106 79Q126 62 150 51T207 39Q266 39 303 71T341 159Q341 188 329 208T288 250T208 302Q152 336 127 370T102 460Q102 518 135 566T224 642T347 670Q394
670 434 658T507 624L490 464H473L422 585Q406 599 387 609T337 620Q291 620 259 589T227 510Q227 475 248 449T328 386Q376 358 407 333T452 279T467 209Q467 148 433 99T339 20T206 -10Z" />
<glyph unicode="T" glyph-name="uni0054" horiz-adv-x="640" d="M100 0L104 16L207 57L305 607H174L73 440H57L94 660H672L634 440H618L574 607H443L345 57L436 16L433 0H100Z" />
<glyph unicode="U" glyph-name="uni0055" horiz-adv-x="761" d="M346 -10Q274 -10 220 11T135 78T105 201Q105 220 107 240T113 284L168 603L96 644L99 660H395L392 644L306 603L250 283Q247 264 245 246T243 212Q243 131 283 98T390 64Q430 64 468 83T535 142T574
248L636 605L556 644L559 660H788L785 644L700 604L644 284Q625 175 584 111T482 18T346 -10Z" />
<glyph unicode="V" glyph-name="uni0056" horiz-adv-x="690" d="M266 -5L129 608L71 644L75 660H356L352 644L271 609L367 168H375L614 609L540 644L543 660H740L736 644L679 612L337 -5H266Z" />
<glyph unicode="W" glyph-name="uni0057" horiz-adv-x="951" d="M205 -5L135 608L71 644L74 660H360L358 644L272 607L314 205H321L551 665H618L697 207H703L875 609L799 644L802 660H1009L1006 644L938 610L666 -5H598L515 459H509L274 -5H205Z" />
<glyph unicode="X" glyph-name="uni0058" horiz-adv-x="714" d="M-38 0L-34 16L43 53L293 321L141 611L88 644L91 660H381L378 644L293 609L292 604L402 400L589 604L590 608L521 644L524 660H737L734 644L668 610L427 353L588 55L649 16L646 0H352L354 16L433
51V55L318 273L120 57L117 53L188 16L185 0H-38Z" />
<glyph unicode="Y" glyph-name="uni0059" horiz-adv-x="686" d="M147 0L150 16L239 57L283 307L126 610L73 644L77 660H355L351 644L271 610L270 606L400 360L597 605L598 609L529 644L533 660H743L740 644L676 614L421 310L376 57L452 16L449 0H147Z" />
<glyph unicode="Z" glyph-name="uni005A" horiz-adv-x="611" d="M8 0L14 36L430 607H209L110 456H94L132 660H599L593 624L180 59H418L520 214H536L496 0H8Z" />
<glyph unicode="[" glyph-name="uni005B" horiz-adv-x="271" d="M17 -150L170 740H341L337 717H230L85 -127H192L188 -150H17Z" />
<glyph unicode="\" glyph-name="uni005C" horiz-adv-x="328" d="M220 -120L60 750H108L268 -120H220Z" />
<glyph unicode="]" glyph-name="uni005D" horiz-adv-x="271" d="M-58 -150L-54 -127H52L197 717H91L95 740H265L112 -150H-58Z" />
<glyph unicode="^" glyph-name="uni005E" horiz-adv-x="561" d="M59 250L320 670H369L482 250H424L332 587L122 250H59Z" />
<glyph unicode="_" glyph-name="uni005F" horiz-adv-x="500" d="M25 -133L32 -97H468L461 -133H25Z" />
<glyph unicode="`" glyph-name="uni0060" horiz-adv-x="500" d="M323 530L180 644Q160 660 159 676T159 707H256L343 530H323Z" />
<glyph unicode="a" glyph-name="uni0061" horiz-adv-x="540" d="M130 -10Q89 -10 63 23T37 120Q37 192 62 255T129 365T223 439T328 466Q381 466 416 441L467 460H487L428 126Q420 79 445 79Q460 79 477 95T512 151L530 145Q502 71 466 31T382 -10Q337 -10 315
19T298 102H295Q252 44 214 17T130 -10ZM170 174Q170 126 179 104T212 82Q238 82 261 104T306 156L347 395Q336 407 323 413T292 420Q256 420 229 385T186 294T170 174Z" />
<glyph unicode="b" glyph-name="uni0062" horiz-adv-x="514" d="M216 -10Q181 -10 152 -1T102 23L36 -4H24L141 668L69 702V714L281 750H284L216 359H221Q262 412 294 439T375 466Q420 466 448 429T476 321Q476 255 456 195T399 89T315 17T216 -10ZM300 374Q277
374 253 355T206 305L166 76Q188 32 224 32Q256 32 284 66T329 158T346 288Q346 329 336 351T300 374Z" />
<glyph unicode="c" glyph-name="uni0063" horiz-adv-x="440" d="M197 -10Q114 -10 75 36T35 166Q35 223 57 276T117 372T205 440T307 466Q349 466 377 453T420 417Q426 408 427 403T429 391Q429 374 414 363L368 329H362L341 368Q324 398 312 409T275 421Q248
421 222 393T180 318T163 216Q163 159 190 127T262 94Q290 94 319 107T386 161H389L404 147Q367 82 316 36T197 -10Z" />
<glyph unicode="d" glyph-name="uni0064" horiz-adv-x="545" d="M131 -10Q90 -10 64 23T38 120Q38 192 63 255T130 365T224 439T329 466Q345 466 360 463L396 669L314 702V714L536 750H539L430 126Q421 79 446 79Q461 79 478 95T513 151L531 145Q503 71 467 31T383
-10Q338 -10 316 19T299 102H296Q251 42 214 16T131 -10ZM171 174Q171 124 180 103T213 82Q236 82 259 101T307 155L349 395Q325 421 293 421Q258 421 231 387T187 296T171 174Z" />
<glyph unicode="e" glyph-name="uni0065" horiz-adv-x="439" d="M194 -10Q112 -10 74 36T35 162Q35 218 55 272T113 370T201 440T312 466Q364 466 391 443T418 386Q418 357 397 332T320 283T165 237Q164 224 164 210Q164 157 192 126T264 94Q295 94 323 108T385
154H388L402 140Q380 100 349 66T278 11T194 -10ZM279 425Q241 425 211 384T169 273Q254 296 286 324T318 388Q318 402 309 413T279 425Z" />
<glyph unicode="f" glyph-name="uni0066" horiz-adv-x="330" d="M-64 -240Q-90 -240 -107 -231T-124 -209Q-124 -201 -118 -192L-90 -143H-84L-55 -168Q-42 -180 -23 -180Q2 -180 17 -152T43 -58L116 412H44V456H123L128 490Q132 517 151 551T199 620T262 684T332
732T400 750Q430 750 448 741Q472 732 472 715Q472 711 471 706T466 695L430 636H422L401 653Q370 678 346 678Q316 678 297 649T267 548L252 456H353V412H245L180 7Q176 -18 159 -50T116 -116T60 -178T-3 -223T-64 -240Z" />
<glyph unicode="g" glyph-name="uni0067" horiz-adv-x="471" d="M230 156Q183 156 148 172Q121 155 121 129Q121 107 142 96T196 78T267 65T337 45T392 8T413 -59Q413 -102 384 -143T298 -212T157 -240Q71 -240 27 -213T-17 -141Q-17 -116 -9 -99T22 -57L88 -21V-18Q59
-8 40 11T20 67Q20 114 57 150L122 183V188Q98 206 86 232T73 290Q73 334 99 374T170 440T272 466Q308 466 340 456H504V412H412L406 407Q435 374 435 329Q435 288 410 248T339 182T230 156ZM243 197Q266 197 283 218T311 271T321 340Q321 382 308 404T264 427Q240
427 223 407T195 354T185 284Q185 244 199 221T243 197ZM71 -126Q71 -160 97 -183T174 -207Q232 -207 263 -179T294 -114Q294 -87 279 -73T239 -50T185 -38T126 -28Q92 -49 82 -73T71 -126Z" />
<glyph unicode="h" glyph-name="uni0068" horiz-adv-x="552" d="M153 0H24L140 668L68 701V714L281 750H284L218 371H222Q254 406 277 427T324 457T379 466Q431 466 458 426T474 318L441 126Q433 79 458 79Q473 79 489 95T524 151L542 145Q514 71 478 31T394 -10Q345
-10 323 25T313 126L346 314Q350 341 341 361T301 382Q277 382 253 364T209 323L153 0Z" />
<glyph unicode="i" glyph-name="uni0069" horiz-adv-x="301" d="M205 568Q176 568 156 588T135 638Q135 668 155 688T205 708Q235 708 255 688T275 638Q275 608 255 588T205 568ZM138 -10Q89 -10 67 25T57 126L103 385L33 418V430L242 466H245L185 126Q176 79
201 79Q216 79 233 95T268 151L286 145Q258 71 222 31T138 -10Z" />
<glyph unicode="j" glyph-name="uni006A" horiz-adv-x="292" d="M203 568Q173 568 153 588T132 638Q132 668 152 688T203 708Q232 708 252 688T272 638Q272 608 252 588T203 568ZM-77 -230V-212Q-42 -188 -20 -166T15 -108T38 -10L101 385L32 418V430L241 466H244L171
24Q158 -63 98 -124T-77 -230Z" />
<glyph unicode="k" glyph-name="uni006B" horiz-adv-x="517" d="M24 0L140 668L68 701V714L281 750H284L199 265Q271 340 317 384T394 447T446 466Q458 466 466 464T480 457Q487 452 490 445T490 428L464 362L459 361L444 367Q437 370 426 372T398 375Q367 375
340 354L296 319L389 125Q400 103 409 91T432 79Q447 79 459 95T485 150L503 144Q480 62 450 26T376 -10Q332 -10 312 16T274 81L198 256L153 0H24Z" />
<glyph unicode="l" glyph-name="uni006C" horiz-adv-x="288" d="M128 -10Q78 -10 57 25T46 126L141 668L65 702V714L281 750H284L174 126Q166 79 191 79Q206 79 222 95T257 151L276 145Q248 71 212 31T128 -10Z" />
<glyph unicode="m" glyph-name="uni006D" horiz-adv-x="815" d="M35 0L102 384L36 418V430L221 466H224V368H230Q262 404 285 425T331 456T386 466Q427 466 452 440T481 368H487Q520 404 543 425T590 456T645 466Q695 466 722 426T738 318L704 126Q696 79 721
79Q736 79 752 95T787 151L806 145Q778 71 742 31T658 -10Q608 -10 586 25T576 126L609 314Q614 341 605 361T567 382Q543 382 521 364T479 324L478 318L423 0H294L350 314Q355 341 346 361T307 382Q283 382 261 363T218 321L164 0H35Z" />
<glyph unicode="n" glyph-name="uni006E" horiz-adv-x="563" d="M35 0L102 384L36 418V430L221 466H224V368H230Q262 404 286 425T334 456T390 466Q442 466 470 426T486 318L452 126Q444 79 469 79Q484 79 500 95T535 151L554 145Q526 71 490 31T406 -10Q356 -10
334 25T324 126L357 314Q362 341 353 361T312 382Q287 382 263 363T218 321L164 0H35Z" />
<glyph unicode="o" glyph-name="uni006F" horiz-adv-x="507" d="M219 -10Q157 -10 116 17T55 89T35 192Q35 243 53 291T105 379T183 442T280 466Q346 466 388 440T451 368T472 264Q472 216 454 168T403 79T324 15T219 -10ZM232 37Q264 37 288 72T327 164T341 288Q341
355 326 387T276 420Q245 420 220 387T181 298T166 172Q166 110 180 74T232 37Z" />
<glyph unicode="p" glyph-name="uni0070" horiz-adv-x="532" d="M-49 -230V-214L9 -184L109 384L44 418V430L228 466H231V357H237Q280 415 313 440T393 466Q438 466 466 429T494 321Q494 255 474 195T417 89T333 17T234 -10Q200 -10 171 -2L140 -183L224 -214V-230H-49ZM318
374Q292 374 268 352T223 303L185 74Q194 54 207 43T242 32Q276 32 304 66T348 159T364 288Q364 328 354 351T318 374Z" />
<glyph unicode="q" glyph-name="uni0071" horiz-adv-x="517" d="M167 -230V-214L244 -184L293 94H288Q248 41 212 16T130 -10Q89 -10 63 23T37 120Q37 192 62 255T129 365T223 439T328 466Q382 466 417 440L475 460H487L374 -183L440 -214V-230H167ZM170 174Q170
126 179 104T212 82Q237 82 260 103T304 152L347 395Q336 408 323 414T291 421Q255 421 228 387T185 296T170 174Z" />
<glyph unicode="r" glyph-name="uni0072" horiz-adv-x="382" d="M35 0L102 384L36 418V430L221 466H224V359H230Q261 406 281 429T318 459T351 466Q374 466 389 454T405 429Q405 421 401 412L366 340H360L348 349Q337 357 327 361T299 366Q278 366 260 355T217
307L164 0H35Z" />
<glyph unicode="s" glyph-name="uni0073" horiz-adv-x="381" d="M143 -10Q102 -10 76 0T34 26Q12 45 12 62Q12 68 14 74T23 84L60 111H67L84 87Q119 38 170 38Q203 38 220 53T238 94Q238 124 218 142T148 188Q116 206 97 223T68 262T59 317Q59 342 75 368T118
417T179 452T250 466Q288 466 308 455T340 429Q355 410 355 396Q355 383 347 378L308 349H301L276 379Q261 398 248 408T213 418Q190 418 176 404T161 368Q161 345 176 327T233 288Q277 264 305 237T333 159Q333 116 310 77T243 14T143 -10Z" />
<glyph unicode="t" glyph-name="uni0074" horiz-adv-x="344" d="M149 -10Q101 -10 75 18T49 100Q49 110 50 122T53 147L100 412H35L38 426L145 476L236 562H254L236 456H357V412H228L187 179Q184 162 183 153T182 137Q182 92 217 92Q240 92 263 113T307 184L326
177Q296 86 251 38T149 -10Z" />
<glyph unicode="u" glyph-name="uni0075" horiz-adv-x="552" d="M152 -10Q109 -10 83 19T57 100Q57 109 58 118T61 138L104 384L38 418V430L242 466H246L192 158Q188 135 188 123Q188 103 198 89T231 74Q252 74 274 91T314 128L359 384L304 418V430L498 466H501L441
126Q433 79 459 79Q474 79 491 95T526 151L544 145Q516 71 480 31T396 -10Q354 -10 332 15T310 87H308Q276 52 253 31T206 0T152 -10Z" />
<glyph unicode="v" glyph-name="uni0076" horiz-adv-x="461" d="M183 0L81 391L12 418V430L195 466H198L280 145H286L336 220Q362 259 368 283T374 324Q374 358 344 376L329 384V389L354 438Q363 456 369 461T389 466Q406 466 422 453T448 421T458 380Q458 351
443 319T387 230L222 0H183Z" />
<glyph unicode="w" glyph-name="uni0077" horiz-adv-x="677" d="M167 0L80 391L12 418V430L195 466H198L257 174H262L397 456H433L514 159H521L553 220Q575 261 583 284T591 324Q591 358 561 376L546 384V389L571 438Q580 456 586 461T606 466Q623 466 638 453T664
421T674 380Q674 351 656 320T604 230L464 0H426L349 265L205 0H167Z" />
<glyph unicode="x" glyph-name="uni0078" horiz-adv-x="484" d="M-11 0Q-10 12 -1 25T29 59T88 118T182 218L114 389L47 418V430L222 466H224L292 292Q327 337 346 364T375 408T388 435T397 456H474Q473 445 466 434T440 403T389 350T305 260L379 71L448 42V30L275
-6H272L195 186Q154 134 131 103T97 53T80 23T69 0H-11Z" />
<glyph unicode="y" glyph-name="uni0079" horiz-adv-x="465" d="M6 -240Q-22 -240 -22 -211V-139L-15 -133H41Q68 -133 85 -131T114 -119T140 -91T175 -38L189 -16L82 389L13 418V430L192 466H195L280 135H286L340 220Q364 258 370 283T377 324Q377 342 369 354T347
376L331 384V389L356 438Q366 456 372 461T392 466Q418 466 439 439T460 380Q460 351 444 319T390 230L189 -79Q174 -102 165 -117T145 -147T116 -183Q66 -240 6 -240Z" />
<glyph unicode="z" glyph-name="uni007A" horiz-adv-x="442" d="M21 -6L2 11L284 351H116L77 279H61L90 456H401L409 435L166 145L321 111L372 192H388L350 -5L138 41Q114 47 100 47Q81 47 67 38T37 11L21 -6Z" />
<glyph unicode="{" glyph-name="uni007B" horiz-adv-x="271" d="M189 -150H166Q98 -150 67 -122T36 -47Q36 -12 48 22T78 90T107 157T120 222Q120 248 106 266T52 284H28L32 307H56Q94 307 115 323T145 365T154 421Q154 456 148 493T141 569Q141 646 182 693T314
740H337L333 717H312Q256 717 231 681T207 585Q208 548 213 515T219 448Q219 402 198 362T114 295Q154 280 167 256T181 199Q181 174 169 140T140 70T112 0T99 -60Q99 -95 117 -111T173 -127H193L189 -150Z" />
<glyph unicode="|" glyph-name="uni007C" horiz-adv-x="250" d="M12 -250L188 750H238L61 -250H12Z" />
<glyph unicode="}" glyph-name="uni007D" horiz-adv-x="271" d="M-44 -150L-40 -127H-18Q38 -127 63 -91T86 5Q86 42 80 75T74 142Q74 188 96 228T180 295Q140 310 127 334T113 391Q113 416 125 450T154 520T182 590T195 650Q195 685 176 701T121 717H100L104
740H127Q195 740 226 712T257 637Q257 602 245 568T215 500T186 433T173 368Q173 342 187 324T241 306H265L261 283H238Q200 283 179 267T148 225T139 169Q139 134 146 97T153 21Q153 -56 112 -103T-21 -150H-44Z" />
<glyph unicode="~" glyph-name="uni007E" horiz-adv-x="561" d="M362 201Q325 201 301 214T259 246T222 277T177 291Q144 291 127 267T103 201H51Q62 268 95 305T182 343Q219 343 243 330T285 298T323 267T368 253Q401 253 418 277T441 343H494Q484 276 450 239T362 201Z" />
<glyph unicode="&#xa0;" glyph-name="uni00A0" horiz-adv-x="245" />
<glyph unicode="&#xa1;" glyph-name="uni00A1" horiz-adv-x="236" d="M126 329Q97 329 84 345T70 388Q70 420 89 442T141 464Q170 464 184 448T198 406Q198 376 178 353T126 329ZM-39 -201L93 241H121L98 -201H-39Z" />
<glyph unicode="&#xa2;" glyph-name="uni00A2" horiz-adv-x="561" d="M151 26L183 103Q136 120 114 162T91 268Q91 325 113 378T174 474T262 542T364 568Q370 568 375 568L403 635H445L415 562Q457 550 477 519Q483 509 484 504T485 493Q485 476 470 465L425 431H419L397
470Q394 476 391 481T385 491L270 211Q290 198 317 198Q350 198 377 213T440 264H443L460 248Q423 183 372 138T253 92Q236 92 221 94L193 26H151ZM222 318Q222 272 240 242L355 520Q347 523 335 523Q306 523 281 495T239 419T222 318Z" />
<glyph unicode="&#xa3;" glyph-name="uni00A3" horiz-adv-x="561" d="M26 0L35 55Q98 99 130 130T173 188T185 248Q185 263 182 279T173 313H76L84 355H161Q154 379 149 403T143 451Q143 495 162 534T215 604T292 652T384 670Q448 670 484 650T535 607Q546 588
546 579Q546 566 529 553L469 514H462L452 540Q446 558 437 577T411 609T368 623Q323 623 297 591T271 514Q271 479 284 438T308 355H456L448 313H316Q318 300 318 288Q318 225 279 184T155 105H414L463 202H495L450 0H26Z" />
<glyph unicode="&#xa4;" glyph-name="uni00A4" horiz-adv-x="561" d="M405 62L349 133Q330 122 308 117T261 111Q204 111 166 141L77 61L45 99L135 179Q115 213 115 256Q115 290 126 322T163 379L107 449L148 483L205 412Q224 422 246 428T293 434Q350 434 388
404L477 483L508 445L419 366Q438 330 438 289Q438 254 427 222T391 165L447 96L405 62ZM267 157Q320 157 353 193T387 285Q387 334 360 361T287 388Q233 388 200 352T167 260Q167 210 193 184T267 157Z" />
<glyph unicode="&#xa5;" glyph-name="uni00A5" horiz-adv-x="561" d="M88 0L91 16L178 57L209 238H76L84 279H217L235 387H102L109 429H222L120 618L74 644L76 660H335L333 645L268 617L267 614L353 446L477 611V615L421 644L423 660H612L610 644L551 621L392
429H505L497 387H364L346 279H479L472 238H338L307 57L381 16L378 0H88Z" />
<glyph unicode="&#xa6;" glyph-name="uni00A6" horiz-adv-x="250" d="M118 350L188 750H238L168 350H118ZM12 -250L82 150H131L61 -250H12Z" />
<glyph unicode="&#xa7;" glyph-name="uni00A7" horiz-adv-x="540" d="M150 -121Q100 -121 71 -107T27 -77Q20 -70 18 -65T16 -54Q16 -42 34 -28L84 13L92 12L104 -4Q112 -16 123 -31T152 -58T195 -70Q235 -70 259 -47T282 10Q282 38 264 54T217 82T156 104T95
130T48 169T29 234Q29 288 69 334T174 402Q160 416 151 435T142 481Q142 528 173 571T258 642T380 670Q429 670 456 657T498 628Q502 621 505 616T508 606Q508 599 503 594T491 580L441 540L434 542L423 557Q414 568 404 583T377 609T336 620Q296 620 273 598T249
541Q249 513 267 496T314 468T375 445T436 419T483 379T501 314Q501 258 462 214T357 149Q374 135 383 116T393 68Q393 32 373 -2T319 -62T242 -105T150 -121ZM141 295Q141 266 157 248T200 219T256 198T314 176Q345 183 367 205T389 256Q389 286 372 304T326 333T267
355T208 379Q178 368 160 345T141 295Z" />
<glyph unicode="&#xa8;" glyph-name="uni00A8" horiz-adv-x="500" d="M156 564Q133 564 118 580T103 617Q103 639 118 654T156 670Q178 670 193 655T209 617Q209 596 194 580T156 564ZM344 564Q321 564 306 580T291 617Q291 639 306 654T344 670Q366 670 381 655T396
617Q396 596 381 580T344 564Z" />
<glyph unicode="&#xa9;" glyph-name="uni00A9" horiz-adv-x="806" d="M362 -10Q274 -10 207 29T101 135T63 286Q63 364 90 433T167 555T288 639T445 670Q532 670 599 631T704 525T743 373Q743 296 716 227T638 105T518 21T362 -10ZM365 25Q437 25 498 51T605 124T676
233T701 370Q701 445 668 504T577 599T440 634Q368 634 307 608T200 536T130 427T105 290Q105 214 138 155T229 60T365 25ZM378 129Q295 129 250 175T205 300Q205 362 237 417T325 506T453 540Q496 540 521 532T572 509L555 394H529L499 478Q486 487 474 491T446
496Q406 496 374 471T324 401T305 298Q305 240 329 208T396 175Q412 175 425 178T449 188L513 266H539L514 164Q482 148 452 139T378 129Z" />
<glyph unicode="&#xaa;" glyph-name="uni00AA" horiz-adv-x="400" d="M149 417Q126 417 113 435T100 491Q100 536 120 577T174 644T252 670Q284 670 304 655L339 670H352L318 490Q312 460 328 460Q336 460 343 468T361 498L374 493Q358 452 336 435T289 417Q259
417 249 435T241 475H238Q218 446 197 432T149 417ZM178 512Q178 471 196 471Q213 471 225 487T248 520L268 630Q259 645 243 645Q222 645 208 624T186 572T178 512ZM74 292L83 342H327L318 292H74Z" />
<glyph unicode="&#xab;" glyph-name="uni00AB" horiz-adv-x="447" d="M16 247L221 424H238L119 247L182 70H165L16 247ZM208 247L413 424H430L311 247L374 70H357L208 247Z" />
<glyph unicode="&#xac;" glyph-name="uni00AC" horiz-adv-x="561" d="M389 62L422 246H59L68 298H488L446 62H389Z" />
<glyph unicode="&#xad;" glyph-name="uni00AD" horiz-adv-x="356" d="M37 225L48 289H317L306 225H37Z" />
<glyph unicode="&#xae;" glyph-name="uni00AE" horiz-adv-x="500" d="M243 227Q186 227 142 252T74 321T49 420Q49 488 80 545T167 636T298 670Q354 670 398 645T467 576T492 477Q492 409 461 352T374 261T243 227ZM247 257Q306 257 354 285T429 363T457 475Q457
522 437 559T379 618T294 640Q234 640 186 612T111 535T83 422Q83 376 104 339T161 279T247 257ZM139 323L140 330L174 346L211 556L183 572L184 578H298Q336 578 356 562T376 521Q376 495 359 478T312 452L348 343L371 330L370 323H293L262 440H244L227 346L254
330L253 323H139ZM277 555H264L248 463H259Q286 463 303 477T320 520Q320 555 277 555Z" />
<glyph unicode="&#xaf;" glyph-name="uni00AF" horiz-adv-x="500" d="M102 588L112 646H398L387 588H102Z" />
<glyph unicode="&#xb0;" glyph-name="uni00B0" horiz-adv-x="500" d="M284 410Q246 410 217 428T171 475T154 540Q154 575 171 604T217 652T284 670Q322 670 351 652T397 605T414 540Q414 505 397 476T351 428T284 410ZM284 453Q318 453 341 476T365 540Q365 580
342 603T284 627Q250 627 227 604T203 540Q203 500 226 477T284 453Z" />
<glyph unicode="&#xb1;" glyph-name="uni00B1" horiz-adv-x="561" d="M284 482H341L316 338H496L487 286H307L283 152H226L250 286H68L77 338H259L284 482ZM448 61H28L38 113H457L448 61Z" />
<glyph unicode="&#xb2;" glyph-name="uni00B2" horiz-adv-x="341" d="M66 505L72 531Q138 597 178 642T238 718T266 773T274 822Q274 841 265 854T234 868Q211 868 197 850T178 799L174 772L167 764H123Q113 764 108 768T105 789Q109 808 122 826T164 865Q185
879 209 889T277 900Q323 900 350 877T378 813Q378 790 369 769T336 722T271 664T165 583H306L355 643H364L337 505H66Z" />
<glyph unicode="&#xb3;" glyph-name="uni00B3" horiz-adv-x="334" d="M180 495Q126 495 98 520Q72 539 71 570Q71 589 78 596T98 603H141L146 595L142 574Q137 546 150 535T183 524Q215 524 233 551T252 629Q252 657 236 673T182 689H147L152 719H169Q209 719
237 748T265 826Q265 849 258 860T234 871Q195 871 186 817L182 789L175 782H132Q123 782 118 784T113 798Q113 817 123 832T152 863Q175 881 198 890T255 900Q309 900 340 878T371 820Q371 774 334 748T242 715Q302 709 330 686T359 626Q359 587 334 558T268 512T180
495Z" />
<glyph unicode="&#xb4;" glyph-name="uni00B4" horiz-adv-x="500" d="M148 530L245 707H352Q349 692 341 678T309 644L167 530H148Z" />
<glyph unicode="&#xb5;" glyph-name="uni00B5" horiz-adv-x="561" d="M-1 -230H-3L116 456H244L190 142Q185 114 193 93T231 72Q253 72 275 90T316 129L372 456H500L434 72Q449 57 480 57H509L512 53L510 41Q495 22 469 6T401 -10Q360 -10 334 15T310 85H306Q275
50 253 29T210 -1T161 -10Q125 -10 103 13L116 -210L-1 -230Z" />
<glyph unicode="&#xb6;" glyph-name="uni00B6" horiz-adv-x="510" d="M180 -110L264 359H224Q152 359 109 395T65 491Q65 568 119 614T262 660H373L234 -110H180ZM289 -110L428 660H560L558 644L472 603L344 -110H289Z" />
<glyph unicode="&#xb7;" glyph-name="uni00B7" horiz-adv-x="250" d="M117 204Q88 204 75 221T61 263Q61 292 80 315T132 339Q161 339 175 323T189 281Q189 251 169 228T117 204Z" />
<glyph unicode="&#xb8;" glyph-name="uni00B8" horiz-adv-x="500" d="M230 -240Q181 -240 155 -217L159 -199H162Q184 -210 216 -210Q244 -210 259 -199T275 -166Q275 -146 256 -130T188 -102L265 24H298L255 -48Q303 -62 324 -85T345 -142Q345 -184 314 -212T230 -240Z" />
<glyph unicode="&#xb9;" glyph-name="uni00B9" horiz-adv-x="315" d="M106 505L108 515L165 540L214 817L117 774L122 801L266 890H326L265 540L316 515L314 505H106Z" />
<glyph unicode="&#xba;" glyph-name="uni00BA" horiz-adv-x="400" d="M215 417Q160 417 132 447T104 526Q104 564 122 597T172 650T248 670Q304 670 331 640T359 562Q359 524 342 491T292 438T215 417ZM219 441Q238 441 250 462T269 515T275 576Q275 605 269 626T245
647Q226 647 213 627T194 576T188 515Q188 484 194 463T219 441ZM66 292L75 342H319L310 292H66Z" />
<glyph unicode="&#xbb;" glyph-name="uni00BB" horiz-adv-x="447" d="M238 248L34 71H16L135 248L72 425H89L238 248ZM430 248L226 71H208L327 248L264 425H281L430 248Z" />
<glyph unicode="&#xbc;" glyph-name="uni00BC" horiz-adv-x="765" d="M79 355L81 365L138 390L187 667L90 624L95 651L239 740H299L238 390L289 365L287 355H79ZM51 19L653 750L691 721L88 -10L51 19ZM524 0L541 97H393L398 120L618 385H692L651 148H714L706 97H642L625
0H524ZM456 148H550L576 294L456 148Z" />
<glyph unicode="&#xbd;" glyph-name="uni00BD" horiz-adv-x="764" d="M79 355L81 365L138 390L187 667L90 624L95 651L239 740H299L238 390L289 365L287 355H79ZM51 19L653 750L691 721L88 -10L51 19ZM401 0L407 26Q473 92 513 137T573 213T601 268T609 317Q609
336 600 349T569 363Q546 363 532 345T513 294L509 267L502 259H458Q448 259 443 263T440 284Q444 303 457 321T499 360Q520 374 544 384T612 395Q658 395 685 372T713 308Q713 285 704 264T671 217T606 159T500 78H641L690 138H699L672 0H401Z" />
<glyph unicode="&#xbe;" glyph-name="uni00BE" horiz-adv-x="774" d="M153 345Q99 345 71 370Q45 389 44 420Q44 439 51 446T71 453H114L119 445L115 424Q110 396 123 385T156 374Q188 374 206 401T225 479Q225 507 209 523T155 539H120L125 569H142Q182 569 210
598T238 676Q238 699 231 710T207 721Q168 721 159 667L155 639L148 632H105Q96 632 91 634T86 648Q86 667 96 682T125 713Q148 731 171 740T228 750Q282 750 313 728T344 670Q344 624 307 598T215 565Q275 559 303 536T332 476Q332 437 307 408T241 362T153 345ZM70
19L672 750L710 721L107 -10L70 19ZM537 0L554 97H406L411 120L631 385H705L664 148H727L719 97H655L638 0H537ZM469 148H563L589 294L469 148Z" />
<glyph unicode="&#xbf;" glyph-name="uni00BF" horiz-adv-x="397" d="M217 332Q188 332 175 348T161 390Q161 420 180 443T232 467Q261 467 275 451T289 408Q289 378 269 355T217 332ZM216 -208Q178 -208 138 -194T63 -155T7 -97T-14 -26Q-14 15 1 40T41 79T93
103T144 123T184 150T200 195Q200 209 196 220T184 242L210 247Q232 224 246 198T260 141Q260 103 244 79T202 40T147 15T92 -4T50 -24T33 -55Q33 -74 48 -86T86 -103T136 -108Q146 -108 163 -107T191 -103L232 -95L246 -101L272 -163Q277 -173 277 -182Q277 -193
265 -200T216 -208Z" />
<glyph unicode="&#xc0;" glyph-name="uni00C0" horiz-adv-x="717" d="M-33 0L-30 16L28 47L379 665H458L587 51L645 16L641 0H352L354 16L441 52L408 219H187L92 50L167 16L163 0H-33ZM216 272H398L350 511L216 272ZM414 710L271 799Q252 811 250 827T250 862H347L434
710H414Z" />
<glyph unicode="&#xc1;" glyph-name="uni00C1" horiz-adv-x="717" d="M-33 0L-30 16L28 47L379 665H458L587 51L645 16L641 0H352L354 16L441 52L408 219H187L92 50L167 16L163 0H-33ZM216 272H398L350 511L216 272ZM415 710L512 862H619Q616 847 609 831T576
799L434 710H415Z" />
<glyph unicode="&#xc2;" glyph-name="uni00C2" horiz-adv-x="717" d="M-33 0L-30 16L28 47L379 665H458L587 51L645 16L641 0H352L354 16L441 52L408 219H187L92 50L167 16L163 0H-33ZM216 272H398L350 511L216 272ZM271 710L428 862H472L571 710H552L437 779L290
710H271Z" />
<glyph unicode="&#xc3;" glyph-name="uni00C3" horiz-adv-x="717" d="M-33 0L-30 16L28 47L379 665H458L587 51L645 16L641 0H352L354 16L441 52L408 219H187L92 50L167 16L163 0H-33ZM216 272H398L350 511L216 272ZM271 722Q296 778 315 804T351 839T388 848Q416
848 437 834T477 805T517 791Q534 791 548 800T583 848H605Q580 792 561 765T525 730T487 722Q460 722 439 736T399 764T359 778Q342 778 328 769T293 722H271Z" />
<glyph unicode="&#xc4;" glyph-name="uni00C4" horiz-adv-x="717" d="M-33 0L-30 16L28 47L379 665H458L587 51L645 16L641 0H352L354 16L441 52L408 219H187L92 50L167 16L163 0H-33ZM216 272H398L350 511L216 272ZM344 733Q321 733 306 748T291 786Q291 808
306 823T344 839Q366 839 381 824T397 786Q397 764 382 749T344 733ZM532 733Q509 733 494 748T479 786Q479 808 494 823T532 839Q554 839 569 824T584 786Q584 764 569 749T532 733Z" />
<glyph unicode="&#xc5;" glyph-name="uni00C5" horiz-adv-x="717" d="M-33 0L-30 16L28 47L379 665H458L587 51L645 16L641 0H352L354 16L441 52L408 219H187L92 50L167 16L163 0H-33ZM216 272H398L350 511L216 272ZM427 710Q390 710 373 730T356 782Q356 822
382 851T452 880Q488 880 505 860T523 807Q523 768 497 739T427 710ZM432 733Q452 733 464 754T476 808Q476 857 448 857Q428 857 416 837T404 782Q404 733 432 733Z" />
<glyph unicode="&#xc6;" glyph-name="uni00C6" horiz-adv-x="958" d="M-33 0L-30 16L32 47L499 660H935L905 487H889L843 607H644L601 367H738L809 454H825L785 229H769L728 314H592L545 53H772L871 204H887L851 0H321L324 16L409 57L440 231H239L99 47L167 16L163
0H-33ZM279 284H449L501 578L279 284Z" />
<glyph unicode="&#xc7;" glyph-name="uni00C7" horiz-adv-x="665" d="M294 -240Q268 -240 250 -234T219 -217L222 -199H226Q248 -210 279 -210Q339 -210 339 -166Q339 -146 320 -130T252 -102L308 -10Q227 -6 169 29T80 124T48 260Q48 342 79 415T165 546T293
637T449 670Q508 670 545 657T622 622L602 435H585L520 593Q503 608 484 615T435 623Q381 623 336 594T259 515T210 397T192 254Q192 156 234 98T350 40Q380 40 408 49T462 74L571 211H588L548 42Q508 19 457 6T341 -10L319 -48Q367 -62 387 -85T408 -142Q408 -184
377 -212T294 -240Z" />
<glyph unicode="&#xc8;" glyph-name="uni00C8" horiz-adv-x="623" d="M-14 0L-11 16L74 57L170 603L99 644L102 660H600L570 487H554L507 607H309L266 364H402L474 451H490L451 232H435L394 317H257L210 53H437L536 204H552L516 0H-14ZM380 710L237 799Q218 811
216 827T216 862H313L400 710H380Z" />
<glyph unicode="&#xc9;" glyph-name="uni00C9" horiz-adv-x="623" d="M-14 0L-11 16L74 57L170 603L99 644L102 660H600L570 487H554L507 607H309L266 364H402L474 451H490L451 232H435L394 317H257L210 53H437L536 204H552L516 0H-14ZM381 710L478 862H585Q582
847 575 831T542 799L400 710H381Z" />
<glyph unicode="&#xca;" glyph-name="uni00CA" horiz-adv-x="623" d="M-14 0L-11 16L74 57L170 603L99 644L102 660H600L570 487H554L507 607H309L266 364H402L474 451H490L451 232H435L394 317H257L210 53H437L536 204H552L516 0H-14ZM237 710L394 862H438L537
710H518L403 779L256 710H237Z" />
<glyph unicode="&#xcb;" glyph-name="uni00CB" horiz-adv-x="623" d="M-14 0L-11 16L74 57L170 603L99 644L102 660H600L570 487H554L507 607H309L266 364H402L474 451H490L451 232H435L394 317H257L210 53H437L536 204H552L516 0H-14ZM310 733Q287 733 272 748T257
786Q257 808 272 823T310 839Q332 839 347 824T363 786Q363 764 348 749T310 733ZM498 733Q475 733 460 748T445 786Q445 808 460 823T498 839Q520 839 535 824T550 786Q550 764 535 749T498 733Z" />
<glyph unicode="&#xcc;" glyph-name="uni00CC" horiz-adv-x="378" d="M-14 0L-11 16L71 57L168 603L95 644L98 660H393L390 644L305 603L209 57L283 16L280 0H-14ZM244 710L101 799Q82 811 80 827T80 862H177L264 710H244Z" />
<glyph unicode="&#xcd;" glyph-name="uni00CD" horiz-adv-x="378" d="M-14 0L-11 16L71 57L168 603L95 644L98 660H393L390 644L305 603L209 57L283 16L280 0H-14ZM245 710L342 862H449Q446 847 439 831T406 799L264 710H245Z" />
<glyph unicode="&#xce;" glyph-name="uni00CE" horiz-adv-x="378" d="M-14 0L-11 16L71 57L168 603L95 644L98 660H393L390 644L305 603L209 57L283 16L280 0H-14ZM101 710L258 862H302L401 710H382L267 779L120 710H101Z" />
<glyph unicode="&#xcf;" glyph-name="uni00CF" horiz-adv-x="378" d="M-14 0L-11 16L71 57L168 603L95 644L98 660H393L390 644L305 603L209 57L283 16L280 0H-14ZM174 733Q151 733 136 748T121 786Q121 808 136 823T174 839Q196 839 211 824T227 786Q227 764
212 749T174 733ZM362 733Q339 733 324 748T309 786Q309 808 324 823T362 839Q384 839 399 824T414 786Q414 764 399 749T362 733Z" />
<glyph unicode="&#xd0;" glyph-name="uni00D0" horiz-adv-x="747" d="M-14 0L-11 16L72 56L118 318H42L51 365H126L168 604L99 644L102 660H364Q478 660 553 625T665 527T703 382Q703 309 674 241T589 119T457 32T284 0H-14ZM394 318H255L208 49H295Q374 49 433
91T526 208T560 384Q560 488 504 548T342 608H307L264 365H402L394 318Z" />
<glyph unicode="&#xd1;" glyph-name="uni00D1" horiz-adv-x="761" d="M-11 0L-8 16L78 57L174 602L102 644L105 660H279L552 205L622 604L522 644L526 660H777L774 644L689 603L582 -5H521L221 487L146 57L245 16L242 0H-11ZM304 722Q329 778 348 804T384 839T421
848Q449 848 470 834T510 805T550 791Q567 791 581 800T616 848H638Q613 792 594 765T558 730T520 722Q493 722 472 736T432 764T392 778Q375 778 361 769T326 722H304Z" />
<glyph unicode="&#xd2;" glyph-name="uni00D2" horiz-adv-x="774" d="M336 -10Q245 -10 181 26T82 126T48 275Q48 356 77 427T160 553T283 639T437 670Q528 670 592 634T691 534T726 385Q726 305 698 234T617 108T494 22T336 -10ZM355 40Q406 40 447 68T519 146T565
261T581 398Q581 497 541 558T421 620Q372 620 331 592T259 515T211 401T194 263Q194 198 213 148T268 69T355 40ZM442 710L299 799Q280 811 278 827T278 862H375L462 710H442Z" />
<glyph unicode="&#xd3;" glyph-name="uni00D3" horiz-adv-x="774" d="M336 -10Q245 -10 181 26T82 126T48 275Q48 356 77 427T160 553T283 639T437 670Q528 670 592 634T691 534T726 385Q726 305 698 234T617 108T494 22T336 -10ZM355 40Q406 40 447 68T519 146T565
261T581 398Q581 497 541 558T421 620Q372 620 331 592T259 515T211 401T194 263Q194 198 213 148T268 69T355 40ZM444 710L541 862H648Q645 847 638 831T605 799L463 710H444Z" />
<glyph unicode="&#xd4;" glyph-name="uni00D4" horiz-adv-x="774" d="M336 -10Q245 -10 181 26T82 126T48 275Q48 356 77 427T160 553T283 639T437 670Q528 670 592 634T691 534T726 385Q726 305 698 234T617 108T494 22T336 -10ZM355 40Q406 40 447 68T519 146T565
261T581 398Q581 497 541 558T421 620Q372 620 331 592T259 515T211 401T194 263Q194 198 213 148T268 69T355 40ZM300 710L457 862H501L600 710H581L466 779L319 710H300Z" />
<glyph unicode="&#xd5;" glyph-name="uni00D5" horiz-adv-x="774" d="M336 -10Q245 -10 181 26T82 126T48 275Q48 356 77 427T160 553T283 639T437 670Q528 670 592 634T691 534T726 385Q726 305 698 234T617 108T494 22T336 -10ZM355 40Q406 40 447 68T519 146T565
261T581 398Q581 497 541 558T421 620Q372 620 331 592T259 515T211 401T194 263Q194 198 213 148T268 69T355 40ZM299 722Q324 778 343 804T379 839T416 848Q444 848 465 834T505 805T545 791Q562 791 576 800T611 848H633Q608 792 589 765T553 730T515 722Q488
722 467 736T427 764T387 778Q370 778 356 769T321 722H299Z" />
<glyph unicode="&#xd6;" glyph-name="uni00D6" horiz-adv-x="774" d="M336 -10Q245 -10 181 26T82 126T48 275Q48 356 77 427T160 553T283 639T437 670Q528 670 592 634T691 534T726 385Q726 305 698 234T617 108T494 22T336 -10ZM355 40Q406 40 447 68T519 146T565
261T581 398Q581 497 541 558T421 620Q372 620 331 592T259 515T211 401T194 263Q194 198 213 148T268 69T355 40ZM372 733Q349 733 334 748T319 786Q319 808 334 823T372 839Q394 839 409 824T425 786Q425 764 410 749T372 733ZM560 733Q537 733 522 748T507 786Q507
808 522 823T560 839Q582 839 597 824T612 786Q612 764 597 749T560 733Z" />
<glyph unicode="&#xd7;" glyph-name="uni00D7" horiz-adv-x="561" d="M96 86L64 127L237 275L118 422L162 460L281 312L454 460L487 418L314 271L433 123L389 86L270 234L96 86Z" />
<glyph unicode="&#xd8;" glyph-name="uni00D8" horiz-adv-x="774" d="M-6 -10L103 94Q48 167 48 275Q48 356 77 427T160 553T284 639T437 670Q500 670 550 652T638 602L709 670H780L671 566Q726 493 726 385Q726 305 698 234T617 108T494 22T336 -10Q273 -10 223
7T136 58L65 -10H-6ZM194 263Q194 222 201 187L558 527Q540 570 506 595T421 620Q372 620 331 592T259 515T211 401T194 263ZM355 40Q406 40 447 68T519 146T565 261T581 398Q581 439 574 474L218 135Q238 91 272 66T355 40Z" />
<glyph unicode="&#xd9;" glyph-name="uni00D9" horiz-adv-x="761" d="M346 -10Q274 -10 220 11T135 78T105 201Q105 220 107 240T113 284L168 603L96 644L99 660H395L392 644L306 603L250 283Q247 264 245 246T243 212Q243 131 283 98T390 64Q430 64 468 83T535
142T574 248L636 605L556 644L559 660H788L785 644L700 604L644 284Q625 175 584 111T482 18T346 -10ZM475 710L332 799Q313 811 311 827T311 862H408L495 710H475Z" />
<glyph unicode="&#xda;" glyph-name="uni00DA" horiz-adv-x="761" d="M346 -10Q274 -10 220 11T135 78T105 201Q105 220 107 240T113 284L168 603L96 644L99 660H395L392 644L306 603L250 283Q247 264 245 246T243 212Q243 131 283 98T390 64Q430 64 468 83T535
142T574 248L636 605L556 644L559 660H788L785 644L700 604L644 284Q625 175 584 111T482 18T346 -10ZM476 710L573 862H680Q677 847 670 831T637 799L495 710H476Z" />
<glyph unicode="&#xdb;" glyph-name="uni00DB" horiz-adv-x="761" d="M346 -10Q274 -10 220 11T135 78T105 201Q105 220 107 240T113 284L168 603L96 644L99 660H395L392 644L306 603L250 283Q247 264 245 246T243 212Q243 131 283 98T390 64Q430 64 468 83T535
142T574 248L636 605L556 644L559 660H788L785 644L700 604L644 284Q625 175 584 111T482 18T346 -10ZM333 710L490 862H534L633 710H614L499 779L352 710H333Z" />
<glyph unicode="&#xdc;" glyph-name="uni00DC" horiz-adv-x="761" d="M346 -10Q274 -10 220 11T135 78T105 201Q105 220 107 240T113 284L168 603L96 644L99 660H395L392 644L306 603L250 283Q247 264 245 246T243 212Q243 131 283 98T390 64Q430 64 468 83T535
142T574 248L636 605L556 644L559 660H788L785 644L700 604L644 284Q625 175 584 111T482 18T346 -10ZM405 733Q382 733 367 748T352 786Q352 808 367 823T405 839Q427 839 442 824T458 786Q458 764 443 749T405 733ZM593 733Q570 733 555 748T540 786Q540 808
555 823T593 839Q615 839 630 824T645 786Q645 764 630 749T593 733Z" />
<glyph unicode="&#xdd;" glyph-name="uni00DD" horiz-adv-x="686" d="M147 0L150 16L239 57L283 307L126 610L73 644L77 660H355L351 644L271 610L270 606L400 360L597 605L598 609L529 644L533 660H743L740 644L676 614L421 310L376 57L452 16L449 0H147ZM439
710L536 862H643Q640 847 633 831T600 799L458 710H439Z" />
<glyph unicode="&#xde;" glyph-name="uni00DE" horiz-adv-x="624" d="M395 660L392 644L307 603L294 527H346Q471 527 535 488T600 368Q600 312 565 266T458 191T281 162H229L211 57L286 16L283 0H-14L-11 16L74 57L170 603L98 644L101 660H395ZM320 474H284L238
209H298Q378 209 416 253T454 362Q454 418 419 446T320 474Z" />
<glyph unicode="&#xdf;" glyph-name="uni00DF" horiz-adv-x="640" d="M75 410V456H163L167 479Q175 530 200 578T266 665T357 727T469 750Q549 750 588 716T628 632Q628 598 612 573T572 526T524 484T484 439T467 383Q467 358 477 341T506 308T547 271Q582 239
593 213T605 156Q605 110 581 73T514 13T410 -10Q370 -10 343 0T301 26Q279 45 279 62Q279 68 281 74T290 84L328 111H334L351 87Q368 64 388 50T432 35Q470 35 489 54T508 106Q508 130 495 147T461 180T413 218Q392 237 376 259T360 316Q360 354 376 383T417 437T467
489T508 548T525 623Q525 658 505 680T444 703Q386 703 354 660T309 542L216 7Q211 -19 194 -51T151 -117T95 -178T32 -223T-28 -240Q-53 -240 -70 -231T-87 -210Q-87 -200 -82 -192L-53 -143H-47L-18 -168Q-3 -180 16 -180Q41 -180 55 -152T80 -58L156 410H75Z"
/>
<glyph unicode="&#xe0;" glyph-name="uni00E0" horiz-adv-x="540" d="M130 -10Q89 -10 63 23T37 120Q37 192 62 255T129 365T223 439T328 466Q381 466 416 441L467 460H487L428 126Q420 79 445 79Q460 79 477 95T512 151L530 145Q502 71 466 31T382 -10Q337 -10
315 19T298 102H295Q252 44 214 17T130 -10ZM170 174Q170 126 179 104T212 82Q238 82 261 104T306 156L347 395Q336 407 323 413T292 420Q256 420 229 385T186 294T170 174ZM328 530L185 644Q165 660 164 676T164 707H261L348 530H328Z" />
<glyph unicode="&#xe1;" glyph-name="uni00E1" horiz-adv-x="540" d="M130 -10Q89 -10 63 23T37 120Q37 192 62 255T129 365T223 439T328 466Q381 466 416 441L467 460H487L428 126Q420 79 445 79Q460 79 477 95T512 151L530 145Q502 71 466 31T382 -10Q337 -10
315 19T298 102H295Q252 44 214 17T130 -10ZM170 174Q170 126 179 104T212 82Q238 82 261 104T306 156L347 395Q336 407 323 413T292 420Q256 420 229 385T186 294T170 174ZM329 530L426 707H533Q530 692 522 678T490 644L348 530H329Z" />
<glyph unicode="&#xe2;" glyph-name="uni00E2" horiz-adv-x="540" d="M130 -10Q89 -10 63 23T37 120Q37 192 62 255T129 365T223 439T328 466Q381 466 416 441L467 460H487L428 126Q420 79 445 79Q460 79 477 95T512 151L530 145Q502 71 466 31T382 -10Q337 -10
315 19T298 102H295Q252 44 214 17T130 -10ZM170 174Q170 126 179 104T212 82Q238 82 261 104T306 156L347 395Q336 407 323 413T292 420Q256 420 229 385T186 294T170 174ZM185 530L347 707H391L485 530H466L354 620L204 530H185Z" />
<glyph unicode="&#xe3;" glyph-name="uni00E3" horiz-adv-x="540" d="M130 -10Q89 -10 63 23T37 120Q37 192 62 255T129 365T223 439T328 466Q381 466 416 441L467 460H487L428 126Q420 79 445 79Q460 79 477 95T512 151L530 145Q502 71 466 31T382 -10Q337 -10
315 19T298 102H295Q252 44 214 17T130 -10ZM170 174Q170 126 179 104T212 82Q238 82 261 104T306 156L347 395Q336 407 323 413T292 420Q256 420 229 385T186 294T170 174ZM187 550Q214 610 233 639T269 677T306 686Q326 686 342 677T373 654T402 632T434 622Q450
622 463 633T499 686H521Q494 626 475 597T439 559T401 550Q381 550 365 559T335 582T305 604T274 614Q258 614 245 603T209 550H187Z" />
<glyph unicode="&#xe4;" glyph-name="uni00E4" horiz-adv-x="540" d="M130 -10Q89 -10 63 23T37 120Q37 192 62 255T129 365T223 439T328 466Q381 466 416 441L467 460H487L428 126Q420 79 445 79Q460 79 477 95T512 151L530 145Q502 71 466 31T382 -10Q337 -10
315 19T298 102H295Q252 44 214 17T130 -10ZM170 174Q170 126 179 104T212 82Q238 82 261 104T306 156L347 395Q336 407 323 413T292 420Q256 420 229 385T186 294T170 174ZM260 564Q237 564 222 580T207 617Q207 639 222 654T260 670Q282 670 297 655T313 617Q313
596 298 580T260 564ZM448 564Q425 564 410 580T395 617Q395 639 410 654T448 670Q470 670 485 655T500 617Q500 596 485 580T448 564Z" />
<glyph unicode="&#xe5;" glyph-name="uni00E5" horiz-adv-x="540" d="M130 -10Q89 -10 63 23T37 120Q37 192 62 255T129 365T223 439T328 466Q381 466 416 441L467 460H487L428 126Q420 79 445 79Q460 79 477 95T512 151L530 145Q502 71 466 31T382 -10Q337 -10
315 19T298 102H295Q252 44 214 17T130 -10ZM170 174Q170 126 179 104T212 82Q238 82 261 104T306 156L347 395Q336 407 323 413T292 420Q256 420 229 385T186 294T170 174ZM342 533Q305 533 288 553T271 605Q271 645 297 674T367 703Q403 703 420 683T438 631Q438
591 412 562T342 533ZM347 556Q367 556 379 577T391 631Q391 680 363 680Q343 680 331 660T319 605Q319 556 347 556Z" />
<glyph unicode="&#xe6;" glyph-name="uni00E6" horiz-adv-x="716" d="M130 -10Q89 -10 63 23T37 120Q37 192 62 255T129 365T223 439T328 466Q403 466 453 425Q482 444 516 455T589 466Q641 466 667 442T694 386Q694 357 673 332T596 283T441 237Q440 224 440
210Q440 160 467 127T540 94Q572 94 599 108T661 154H664L679 140Q658 102 626 68T555 12T470 -10Q400 -10 362 24T314 119H309Q259 50 219 20T130 -10ZM556 425Q517 425 487 383T445 273Q530 296 562 324T594 388Q594 402 586 413T556 425ZM212 82Q237 82 261
104T311 161Q311 163 311 168Q311 220 332 273T389 368Q369 394 349 407T302 420Q260 420 231 385T186 294T170 174Q170 126 179 104T212 82Z" />
<glyph unicode="&#xe7;" glyph-name="uni00E7" horiz-adv-x="440" d="M161 -240Q136 -240 117 -234T86 -217L89 -199H93Q115 -210 146 -210Q206 -210 206 -166Q206 -146 187 -130T119 -102L176 -9Q104 -3 70 42T35 166Q35 223 57 276T117 372T205 440T307 466Q349
466 377 453T420 417Q429 400 429 391Q429 374 414 363L368 329H362L341 368Q328 391 316 406T275 421Q248 421 222 393T180 318T163 216Q163 159 190 127T262 94Q290 94 319 107T386 161H389L404 147Q369 84 320 40T208 -10L186 -48Q234 -62 254 -85T275 -142Q275
-184 244 -212T161 -240Z" />
<glyph unicode="&#xe8;" glyph-name="uni00E8" horiz-adv-x="439" d="M194 -10Q112 -10 74 36T35 162Q35 218 55 272T113 370T201 440T312 466Q364 466 391 443T418 386Q418 357 397 332T320 283T165 237Q164 224 164 210Q164 157 192 126T264 94Q295 94 323 108T385
154H388L402 140Q380 100 349 66T278 11T194 -10ZM279 425Q241 425 211 384T169 273Q254 296 286 324T318 388Q318 402 309 413T279 425ZM310 530L167 644Q147 660 146 676T146 707H243L330 530H310Z" />
<glyph unicode="&#xe9;" glyph-name="uni00E9" horiz-adv-x="439" d="M194 -10Q112 -10 74 36T35 162Q35 218 55 272T113 370T201 440T312 466Q364 466 391 443T418 386Q418 357 397 332T320 283T165 237Q164 224 164 210Q164 157 192 126T264 94Q295 94 323 108T385
154H388L402 140Q380 100 349 66T278 11T194 -10ZM279 425Q241 425 211 384T169 273Q254 296 286 324T318 388Q318 402 309 413T279 425ZM310 530L407 707H514Q511 692 503 678T471 644L329 530H310Z" />
<glyph unicode="&#xea;" glyph-name="uni00EA" horiz-adv-x="439" d="M194 -10Q112 -10 74 36T35 162Q35 218 55 272T113 370T201 440T312 466Q364 466 391 443T418 386Q418 357 397 332T320 283T165 237Q164 224 164 210Q164 157 192 126T264 94Q295 94 323 108T385
154H388L402 140Q380 100 349 66T278 11T194 -10ZM279 425Q241 425 211 384T169 273Q254 296 286 324T318 388Q318 402 309 413T279 425ZM166 530L328 707H372L466 530H447L335 620L185 530H166Z" />
<glyph unicode="&#xeb;" glyph-name="uni00EB" horiz-adv-x="439" d="M194 -10Q112 -10 74 36T35 162Q35 218 55 272T113 370T201 440T312 466Q364 466 391 443T418 386Q418 357 397 332T320 283T165 237Q164 224 164 210Q164 157 192 126T264 94Q295 94 323 108T385
154H388L402 140Q380 100 349 66T278 11T194 -10ZM279 425Q241 425 211 384T169 273Q254 296 286 324T318 388Q318 402 309 413T279 425ZM241 564Q218 564 203 580T188 617Q188 639 203 654T241 670Q263 670 278 655T294 617Q294 596 279 580T241 564ZM429 564Q406
564 391 580T376 617Q376 639 391 654T429 670Q451 670 466 655T481 617Q481 596 466 580T429 564Z" />
<glyph unicode="&#xec;" glyph-name="uni00EC" horiz-adv-x="301" d="M138 -10Q89 -10 67 25T57 126L103 385L33 418V430L242 466H245L185 126Q176 79 201 79Q216 79 233 95T268 151L286 145Q258 71 222 31T138 -10ZM179 530L36 644Q16 660 15 676T15 707H112L199
530H179Z" />
<glyph unicode="&#xed;" glyph-name="uni00ED" horiz-adv-x="301" d="M138 -10Q89 -10 67 25T57 126L103 385L33 418V430L242 466H245L185 126Q176 79 201 79Q216 79 233 95T268 151L286 145Q258 71 222 31T138 -10ZM179 530L276 707H383Q380 692 372 678T340
644L198 530H179Z" />
<glyph unicode="&#xee;" glyph-name="uni00EE" horiz-adv-x="301" d="M138 -10Q89 -10 67 25T57 126L103 385L33 418V430L242 466H245L185 126Q176 79 201 79Q216 79 233 95T268 151L286 145Q258 71 222 31T138 -10ZM36 530L198 707H242L336 530H317L205 620L55 530H36Z" />
<glyph unicode="&#xef;" glyph-name="uni00EF" horiz-adv-x="301" d="M138 -10Q89 -10 67 25T57 126L103 385L33 418V430L242 466H245L185 126Q176 79 201 79Q216 79 233 95T268 151L286 145Q258 71 222 31T138 -10ZM110 564Q87 564 72 580T57 617Q57 639 72 654T110
670Q132 670 147 655T163 617Q163 596 148 580T110 564ZM298 564Q275 564 260 580T245 617Q245 639 260 654T298 670Q320 670 335 655T350 617Q350 596 335 580T298 564Z" />
<glyph unicode="&#xf0;" glyph-name="uni00F0" horiz-adv-x="507" d="M216 -10Q160 -10 119 15T56 84T34 183Q34 239 53 290T108 380T191 443T293 466Q310 466 323 465T348 461Q338 532 306 586L228 523H156L281 623Q230 687 143 721L150 749Q253 722 330 663L426
740H497L364 633Q424 576 456 501T488 338Q488 265 468 202T412 92T326 17T216 -10ZM165 158Q165 103 179 70T226 37Q261 37 290 82T336 205T354 382Q354 386 354 388Q342 403 327 411T290 420Q238 420 202 350T165 158Z" />
<glyph unicode="&#xf1;" glyph-name="uni00F1" horiz-adv-x="563" d="M35 0L102 384L36 418V430L221 466H224V368H230Q262 404 286 425T334 456T390 466Q442 466 470 426T486 318L452 126Q444 79 469 79Q484 79 500 95T535 151L554 145Q526 71 490 31T406 -10Q356
-10 334 25T324 126L357 314Q362 341 353 361T312 382Q287 382 263 363T218 321L164 0H35ZM169 550Q196 610 215 639T251 677T288 686Q308 686 324 677T355 654T384 632T416 622Q432 622 445 633T481 686H503Q476 626 457 597T421 559T383 550Q363 550 347 559T317
582T287 604T256 614Q240 614 227 603T191 550H169Z" />
<glyph unicode="&#xf2;" glyph-name="uni00F2" horiz-adv-x="507" d="M219 -10Q157 -10 116 17T55 89T35 192Q35 243 53 291T105 379T183 442T280 466Q346 466 388 440T451 368T472 264Q472 216 454 168T403 79T324 15T219 -10ZM232 37Q264 37 288 72T327 164T341
288Q341 355 326 387T276 420Q245 420 220 387T181 298T166 172Q166 110 180 74T232 37ZM295 530L152 644Q132 660 131 676T131 707H228L315 530H295Z" />
<glyph unicode="&#xf3;" glyph-name="uni00F3" horiz-adv-x="507" d="M219 -10Q157 -10 116 17T55 89T35 192Q35 243 53 291T105 379T183 442T280 466Q346 466 388 440T451 368T472 264Q472 216 454 168T403 79T324 15T219 -10ZM232 37Q264 37 288 72T327 164T341
288Q341 355 326 387T276 420Q245 420 220 387T181 298T166 172Q166 110 180 74T232 37ZM296 530L393 707H500Q497 692 489 678T457 644L315 530H296Z" />
<glyph unicode="&#xf4;" glyph-name="uni00F4" horiz-adv-x="507" d="M219 -10Q157 -10 116 17T55 89T35 192Q35 243 53 291T105 379T183 442T280 466Q346 466 388 440T451 368T472 264Q472 216 454 168T403 79T324 15T219 -10ZM232 37Q264 37 288 72T327 164T341
288Q341 355 326 387T276 420Q245 420 220 387T181 298T166 172Q166 110 180 74T232 37ZM152 530L314 707H358L452 530H433L321 620L171 530H152Z" />
<glyph unicode="&#xf5;" glyph-name="uni00F5" horiz-adv-x="507" d="M219 -10Q157 -10 116 17T55 89T35 192Q35 243 53 291T105 379T183 442T280 466Q346 466 388 440T451 368T472 264Q472 216 454 168T403 79T324 15T219 -10ZM232 37Q264 37 288 72T327 164T341
288Q341 355 326 387T276 420Q245 420 220 387T181 298T166 172Q166 110 180 74T232 37ZM153 550Q180 610 199 639T235 677T272 686Q292 686 308 677T339 654T368 632T400 622Q416 622 429 633T465 686H487Q460 626 441 597T405 559T367 550Q347 550 331 559T301
582T271 604T240 614Q224 614 211 603T175 550H153Z" />
<glyph unicode="&#xf6;" glyph-name="uni00F6" horiz-adv-x="507" d="M219 -10Q157 -10 116 17T55 89T35 192Q35 243 53 291T105 379T183 442T280 466Q346 466 388 440T451 368T472 264Q472 216 454 168T403 79T324 15T219 -10ZM232 37Q264 37 288 72T327 164T341
288Q341 355 326 387T276 420Q245 420 220 387T181 298T166 172Q166 110 180 74T232 37ZM227 564Q204 564 189 580T174 617Q174 639 189 654T227 670Q249 670 264 655T280 617Q280 596 265 580T227 564ZM415 564Q392 564 377 580T362 617Q362 639 377 654T415 670Q437
670 452 655T467 617Q467 596 452 580T415 564Z" />
<glyph unicode="&#xf7;" glyph-name="uni00F7" horiz-adv-x="561" d="M277 482H344L332 413H265L277 482ZM478 246H59L68 298H488L478 246ZM215 131H282L270 62H203L215 131Z" />
<glyph unicode="&#xf8;" glyph-name="uni00F8" horiz-adv-x="507" d="M1 -4L68 66Q35 117 35 192Q35 243 53 291T105 379T183 442T280 466Q321 466 353 455T409 424L443 460H506L439 390Q472 339 472 264Q472 216 454 168T403 79T324 15T219 -10Q180 -10 150 1T97
31L64 -4H1ZM166 172V169L337 349Q326 420 276 420Q245 420 220 387T181 298T166 172ZM232 37Q264 37 288 72T327 164T341 287L171 108Q177 74 191 56T232 37Z" />
<glyph unicode="&#xf9;" glyph-name="uni00F9" horiz-adv-x="552" d="M152 -10Q109 -10 83 19T57 100Q57 109 58 118T61 138L104 384L38 418V430L242 466H246L192 158Q188 135 188 123Q188 103 198 89T231 74Q252 74 274 91T314 128L359 384L304 418V430L498 466H501L441
126Q433 79 459 79Q474 79 491 95T526 151L544 145Q516 71 480 31T396 -10Q354 -10 332 15T310 87H308Q276 52 253 31T206 0T152 -10ZM312 530L169 644Q149 660 148 676T148 707H245L332 530H312Z" />
<glyph unicode="&#xfa;" glyph-name="uni00FA" horiz-adv-x="552" d="M152 -10Q109 -10 83 19T57 100Q57 109 58 118T61 138L104 384L38 418V430L242 466H246L192 158Q188 135 188 123Q188 103 198 89T231 74Q252 74 274 91T314 128L359 384L304 418V430L498 466H501L441
126Q433 79 459 79Q474 79 491 95T526 151L544 145Q516 71 480 31T396 -10Q354 -10 332 15T310 87H308Q276 52 253 31T206 0T152 -10ZM313 530L410 707H517Q514 692 506 678T474 644L332 530H313Z" />
<glyph unicode="&#xfb;" glyph-name="uni00FB" horiz-adv-x="552" d="M152 -10Q109 -10 83 19T57 100Q57 109 58 118T61 138L104 384L38 418V430L242 466H246L192 158Q188 135 188 123Q188 103 198 89T231 74Q252 74 274 91T314 128L359 384L304 418V430L498 466H501L441
126Q433 79 459 79Q474 79 491 95T526 151L544 145Q516 71 480 31T396 -10Q354 -10 332 15T310 87H308Q276 52 253 31T206 0T152 -10ZM169 530L331 707H375L469 530H450L338 620L188 530H169Z" />
<glyph unicode="&#xfc;" glyph-name="uni00FC" horiz-adv-x="552" d="M152 -10Q109 -10 83 19T57 100Q57 109 58 118T61 138L104 384L38 418V430L242 466H246L192 158Q188 135 188 123Q188 103 198 89T231 74Q252 74 274 91T314 128L359 384L304 418V430L498 466H501L441
126Q433 79 459 79Q474 79 491 95T526 151L544 145Q516 71 480 31T396 -10Q354 -10 332 15T310 87H308Q276 52 253 31T206 0T152 -10ZM244 564Q221 564 206 580T191 617Q191 639 206 654T244 670Q266 670 281 655T297 617Q297 596 282 580T244 564ZM432 564Q409
564 394 580T379 617Q379 639 394 654T432 670Q454 670 469 655T484 617Q484 596 469 580T432 564Z" />
<glyph unicode="&#xfd;" glyph-name="uni00FD" horiz-adv-x="465" d="M6 -240Q-22 -240 -22 -211V-139L-15 -133H41Q68 -133 85 -131T114 -119T140 -91T175 -38L189 -16L82 389L13 418V430L192 466H195L280 135H286L340 220Q364 258 370 283T377 324Q377 342 369
354T347 376L331 384V389L356 438Q366 456 372 461T392 466Q418 466 439 439T460 380Q460 351 444 319T390 230L189 -79Q174 -102 165 -117T145 -147T116 -183Q66 -240 6 -240ZM301 530L398 707H505Q502 692 494 678T462 644L320 530H301Z" />
<glyph unicode="&#xfe;" glyph-name="uni00FE" horiz-adv-x="532" d="M-49 -230V-214L9 -184L159 668L83 702V714L299 750H302L234 360H240Q281 416 314 441T393 466Q438 466 466 429T494 321Q494 255 474 195T417 89T333 17T234 -10Q200 -10 171 -2L140 -183L224
-214V-230H-49ZM318 374Q293 374 269 353T225 305L185 74Q194 54 207 43T242 32Q276 32 304 66T348 159T364 288Q364 328 354 351T318 374Z" />
<glyph unicode="&#xff;" glyph-name="uni00FF" horiz-adv-x="465" d="M6 -240Q-22 -240 -22 -211V-139L-15 -133H41Q68 -133 85 -131T114 -119T140 -91T175 -38L189 -16L82 389L13 418V430L192 466H195L280 135H286L340 220Q364 258 370 283T377 324Q377 342 369
354T347 376L331 384V389L356 438Q366 456 372 461T392 466Q418 466 439 439T460 380Q460 351 444 319T390 230L189 -79Q174 -102 165 -117T145 -147T116 -183Q66 -240 6 -240ZM232 564Q209 564 194 580T179 617Q179 639 194 654T232 670Q254 670 269 655T285 617Q285
596 270 580T232 564ZM420 564Q397 564 382 580T367 617Q367 639 382 654T420 670Q442 670 457 655T472 617Q472 596 457 580T420 564Z" />
<glyph unicode="&#x2013;" glyph-name="uni2013" horiz-adv-x="500" d="M38 254L45 290H462L455 254H38Z" />
<glyph unicode="&#x2014;" glyph-name="uni2014" horiz-adv-x="1000" d="M50 254L57 290H950L943 254H50Z" />
<glyph unicode="&#x2018;" glyph-name="uni2018" horiz-adv-x="238" d="M178 484Q174 484 169 485T157 491Q106 522 106 582Q106 631 148 678T273 752V728Q177 694 177 632Q177 596 210 576L236 560L238 548L202 502Q194 492 190 488T178 484Z" />
<glyph unicode="&#x2019;" glyph-name="uni2019" horiz-adv-x="238" d="M85 484V508Q182 542 182 603Q182 639 148 660L122 675L121 687L156 733Q164 744 168 748T180 752Q188 752 202 745Q252 714 252 654Q252 604 210 557T85 484Z" />
<glyph unicode="&#x201a;" glyph-name="uni201A" horiz-adv-x="238" d="M-9 -197V-173Q88 -139 88 -78Q88 -42 54 -21L28 -6L27 6L62 52Q70 63 74 67T86 71Q94 71 108 64Q158 33 158 -27Q158 -77 116 -124T-9 -197Z" />
<glyph unicode="&#x201c;" glyph-name="uni201C" horiz-adv-x="418" d="M178 484Q174 484 169 485T157 491Q106 522 106 582Q106 631 148 678T273 752V728Q177 694 177 632Q177 596 210 576L236 560L238 548L202 502Q194 492 190 488T178 484ZM358 484Q354 484
349 485T337 491Q286 522 286 582Q286 631 328 678T453 752V728Q357 694 357 632Q357 596 390 576L416 560L418 548L382 502Q374 492 370 488T358 484Z" />
<glyph unicode="&#x201d;" glyph-name="uni201D" horiz-adv-x="418" d="M85 484V508Q182 542 182 603Q182 639 148 660L122 675L121 687L156 733Q164 744 168 748T180 752Q188 752 202 745Q252 714 252 654Q252 604 210 557T85 484ZM265 484V508Q362 542 362 603Q362
639 328 660L302 675L301 687L336 733Q344 744 348 748T360 752Q368 752 382 745Q432 714 432 654Q432 604 390 557T265 484Z" />
<glyph unicode="&#x201e;" glyph-name="uni201E" horiz-adv-x="418" d="M-16 -197V-173Q81 -139 81 -78Q81 -42 47 -21L21 -6L20 6L55 52Q63 63 67 67T79 71Q87 71 101 64Q151 33 151 -27Q151 -77 109 -124T-16 -197ZM164 -197V-173Q261 -139 261 -78Q261 -42
227 -21L201 -6L200 6L235 52Q243 63 247 67T259 71Q267 71 281 64Q331 33 331 -27Q331 -77 289 -124T164 -197Z" />
<glyph unicode="&#x2022;" glyph-name="uni2022" horiz-adv-x="500" d="M250 156Q199 156 167 189T134 272Q134 322 166 354T250 387Q299 387 332 355T365 272Q365 222 332 189T250 156Z" />
<glyph unicode="&#x2039;" glyph-name="uni2039" horiz-adv-x="254" d="M16 247L221 424H238L119 247L182 70H165L16 247Z" />
<glyph unicode="&#x203a;" glyph-name="uni203A" horiz-adv-x="254" d="M238 248L34 71H16L135 248L72 425H89L238 248Z" />
</font>
</defs>
</svg>
