<?xml version="1.0" standalone="no"?>
<!DOCTYPE svg PUBLIC "-//W3C//DTD SVG 1.1//EN" "http://www.w3.org/Graphics/SVG/1.1/DTD/svg11.dtd" >
<svg xmlns="http://www.w3.org/2000/svg">
<metadata>Generated by IcoMoon</metadata>
<defs>
<font id="matmix-icons" horiz-adv-x="1024">
<font-face units-per-em="1024" ascent="960" descent="-64" />
<missing-glyph horiz-adv-x="1024" />
<glyph unicode="&#x20;" d="" horiz-adv-x="512" />
<glyph unicode="&#xe040;" d="M512 896q95.667 0 182.5-37.167t149.667-100 100-149.667 37.167-182.5-37.167-182.5-100-149.667-149.667-100-182.5-37.167-182.5 37.167-149.667 100-100 149.667-37.167 182.5 37.167 182.5 100 149.667 149.667 100 182.5 37.167zM512 810.667q-78 0-149.167-30.5t-122.5-81.833-81.833-122.5-30.5-149.167 30.5-149.167 81.833-122.5 122.5-81.833 149.167-30.5 149.167 30.5 122.5 81.833 81.833 122.5 30.5 149.167-30.5 149.167-81.833 122.5-122.5 81.833-149.167 30.5zM512 640q17.667 0 30.167-12.5t12.5-30.167v-128h128q17.667 0 30.167-12.5t12.5-30.167-12.5-30.167-30.167-12.5h-128v-128q0-17.667-12.5-30.167t-30.167-12.5-30.167 12.5-12.5 30.167v128h-128q-17.667 0-30.167 12.5t-12.5 30.167 12.5 30.167 30.167 12.5h128v128q0 17.667 12.5 30.167t30.167 12.5z" />
<glyph unicode="&#xe041;" d="M512 896q95.667 0 182.5-37.167t149.667-100 100-149.667 37.167-182.5-37.167-182.5-100-149.667-149.667-100-182.5-37.167-182.5 37.167-149.667 100-100 149.667-37.167 182.5 37.167 182.5 100 149.667 149.667 100 182.5 37.167zM512 810.667q-78 0-149.167-30.5t-122.5-81.833-81.833-122.5-30.5-149.167 30.5-149.167 81.833-122.5 122.5-81.833 149.167-30.5 149.167 30.5 122.5 81.833 81.833 122.5 30.5 149.167-30.5 149.167-81.833 122.5-122.5 81.833-149.167 30.5zM341.333 469.334h341.333q17.667 0 30.167-12.5t12.5-30.167-12.5-30.167-30.167-12.5h-341.333q-17.667 0-30.167 12.5t-12.5 30.167 12.5 30.167 30.167 12.5z" />
<glyph unicode="&#xe042;" d="M512 896q95.667 0 182.5-37.167t149.667-100 100-149.667 37.167-182.5-37.167-182.5-100-149.667-149.667-100-182.5-37.167-182.5 37.167-149.667 100-100 149.667-37.167 182.5 37.167 182.5 100 149.667 149.667 100 182.5 37.167zM512 810.667q-78 0-149.167-30.5t-122.5-81.833-81.833-122.5-30.5-149.167 30.5-149.167 81.833-122.5 122.5-81.833 149.167-30.5 149.167 30.5 122.5 81.833 81.833 122.5 30.5 149.167-30.5 149.167-81.833 122.5-122.5 81.833-149.167 30.5zM655.667 555q17.667 0 30.167-12.5t12.5-30.167-12.667-30.333l-181-181q-12.333-12.333-30-12.333-18 0-30.333 12.333l-90.667 90.333q-12.333 12.333-12.333 30.333 0 17.667 12.5 30.167t30.167 12.5 30.333-12.667l60.333-60.333 150.667 151q12.667 12.667 30.333 12.667z" />
<glyph unicode="&#xe043;" d="M512 896q95.667 0 182.5-37.167t149.667-100 100-149.667 37.167-182.5-37.167-182.5-100-149.667-149.667-100-182.5-37.167-182.5 37.167-149.667 100-100 149.667-37.167 182.5 37.167 182.5 100 149.667 149.667 100 182.5 37.167zM512 810.667q-78 0-149.167-30.5t-122.5-81.833-81.833-122.5-30.5-149.167 30.5-149.167 81.833-122.5 122.5-81.833 149.167-30.5 149.167 30.5 122.5 81.833 81.833 122.5 30.5 149.167-30.5 149.167-81.833 122.5-122.5 81.833-149.167 30.5zM632.667 590.334q17.667 0 30.333-12.5t12.667-30.167-12.667-30.333l-90.667-90.667 90.667-90.333q12.667-12.667 12.667-30 0-17.667-12.667-30.167t-30.333-12.5-30 12.333l-90.667 90.333-90.333-90.333q-12.333-12.333-30.333-12.333-17.667 0-30.167 12.333t-12.5 30q0 18 12.333 30.333l90.667 90.333-90.667 90.667q-12.333 12.333-12.333 30t12.5 30.333 30.167 12.667 30.333-12.667l90.333-90.667 90.667 90.667q12.667 12.667 30 12.667z" />
<glyph unicode="&#xe094;" d="M426.667 768q17.667 0 30.167-12.5t12.5-30.167q0-18-12.667-30.333l-225.667-225.667h665q17.667 0 30.167-12.5t12.5-30.167-12.5-30.167-30.167-12.5h-665l225.667-225.667q12.667-12.333 12.667-30.333 0-17.667-12.5-30.167t-30.167-12.5q-18 0-30.333 12.333l-298.667 298.667q-12.333 13-12.333 30.333t12.333 30.333l298.667 298.667q12.667 12.333 30.333 12.333z" />
<glyph unicode="&#xe095;" d="M597.333 768q18 0 30.333-12.333l298.667-298.667q12.333-12.333 12.333-30.333t-12.333-30.333l-298.667-298.667q-12.333-12.333-30.333-12.333-18.333 0-30.5 12.167t-12.167 30.5q0 18 12.333 30.333l226 225.667h-665q-17.667 0-30.167 12.5t-12.5 30.167 12.5 30.167 30.167 12.5h665l-226 225.667q-12.333 12.333-12.333 30.333 0 18.333 12.167 30.5t30.5 12.167z" />
<glyph unicode="&#xe096;" d="M512 853.334q18 0 30.333-12.333l298.667-298.667q12.333-12.333 12.333-30.333 0-18.333-12.167-30.5t-30.5-12.167q-18 0-30.333 12.333l-225.667 226v-665q0-17.667-12.5-30.167t-30.167-12.5-30.167 12.5-12.5 30.167v665l-225.667-226q-12.333-12.333-30.333-12.333-18.333 0-30.5 12.167t-12.167 30.5q0 18 12.333 30.333l298.667 298.667q12.333 12.333 30.333 12.333z" />
<glyph unicode="&#xe097;" d="M512 853.334q17.667 0 30.167-12.5t12.5-30.167v-665l225.667 226q12.333 12.333 30.333 12.333 18.333 0 30.5-12.167t12.167-30.5q0-18-12.333-30.333l-298.667-298.667q-12.333-12.333-30.333-12.333t-30.333 12.333l-298.667 298.667q-12.333 12.333-12.333 30.333 0 18.333 12.167 30.5t30.5 12.167q18 0 30.333-12.333l225.667-226v665q0 17.667 12.5 30.167t30.167 12.5z" />
<glyph unicode="&#xe114;" d="M512 853.334q17.667 0 30.167-12.5t12.5-30.167v-341.333h341.333q17.667 0 30.167-12.5t12.5-30.167-12.5-30.167-30.167-12.5h-341.333v-341.333q0-17.667-12.5-30.167t-30.167-12.5-30.167 12.5-12.5 30.167v341.333h-341.333q-17.667 0-30.167 12.5t-12.5 30.167 12.5 30.167 30.167 12.5h341.333v341.333q0 17.667 12.5 30.167t30.167 12.5z" />
<glyph unicode="&#xe115;" d="M128 469.334h768q17.667 0 30.167-12.5t12.5-30.167-12.5-30.167-30.167-12.5h-768q-17.667 0-30.167 12.5t-12.5 30.167 12.5 30.167 30.167 12.5z" />
<glyph unicode="&#xe116;" d="M896 725.334q18.333 0 30.5-12.167t12.167-30.5q0-18-12.333-30.333l-512-512q-12.333-12.333-30.333-12.333t-30.333 12.333l-256 256q-12.333 12.333-12.333 30.333 0 18.333 12.167 30.5t30.5 12.167q18 0 30.333-12.333l225.667-226 481.667 482q12.333 12.333 30.333 12.333z" />
<glyph unicode="&#xe117;" d="M810.667 768q18.333 0 30.5-12.167t12.167-30.5q0-18-12.333-30.333l-268.667-268.333 268.667-268.333q12.333-12.333 12.333-30.333 0-18.333-12.167-30.5t-30.5-12.167q-18 0-30.333 12.333l-268.333 268.667-268.333-268.667q-12.333-12.333-30.333-12.333-18.333 0-30.5 12.167t-12.167 30.5q0 18 12.333 30.333l268.667 268.333-268.667 268.333q-12.333 12.333-12.333 30.333 0 18.333 12.167 30.5t30.5 12.167q18 0 30.333-12.333l268.333-268.667 268.333 268.667q12.333 12.333 30.333 12.333z" />
<glyph unicode="&#xe120;" d="M128 725.334h768q17.667 0 30.167-12.5t12.5-30.167-12.5-30.167-30.167-12.5h-768q-17.667 0-30.167 12.5t-12.5 30.167 12.5 30.167 30.167 12.5zM128 213.334h768q17.667 0 30.167-12.5t12.5-30.167-12.5-30.167-30.167-12.5h-768q-17.667 0-30.167 12.5t-12.5 30.167 12.5 30.167 30.167 12.5zM128 469.334h768q17.667 0 30.167-12.5t12.5-30.167-12.5-30.167-30.167-12.5h-768q-17.667 0-30.167 12.5t-12.5 30.167 12.5 30.167 30.167 12.5z" />
<glyph unicode="&#xe129;" d="M853.333 554.667q53 0 90.5-37.5t37.5-90.5-37.5-90.5-90.5-37.5-90.5 37.5-37.5 90.5 37.5 90.5 90.5 37.5zM170.667 554.667q53 0 90.5-37.5t37.5-90.5-37.5-90.5-90.5-37.5-90.5 37.5-37.5 90.5 37.5 90.5 90.5 37.5zM170.667 469.334q-17.667 0-30.167-12.5t-12.5-30.167 12.5-30.167 30.167-12.5 30.167 12.5 12.5 30.167-12.5 30.167-30.167 12.5zM512 554.667q53 0 90.5-37.5t37.5-90.5-37.5-90.5-90.5-37.5-90.5 37.5-37.5 90.5 37.5 90.5 90.5 37.5zM512 469.334q-17.667 0-30.167-12.5t-12.5-30.167 12.5-30.167 30.167-12.5 30.167 12.5 12.5 30.167-12.5 30.167-30.167 12.5zM853.333 469.334q-17.667 0-30.167-12.5t-12.5-30.167 12.5-30.167 30.167-12.5 30.167 12.5 12.5 30.167-12.5 30.167-30.167 12.5z" />
<glyph unicode="&#xe600;" d="M993.28 512h-174.080v174.080c0 30.72-20.48 30.72-51.2 30.72s-51.2 0-51.2-30.72v-174.080h-174.080c-30.72 0-30.72-20.48-30.72-51.2s0-51.2 30.72-51.2h174.080v-174.080c0-30.72 20.48-30.72 51.2-30.72s51.2 0 51.2 30.72v174.080h174.080c30.72 0 30.72 20.48 30.72 51.2s0 51.2-30.72 51.2zM378.88 512h-348.16c-30.72 0-30.72-20.48-30.72-51.2s0-51.2 30.72-51.2h348.16c30.72 0 30.72 20.48 30.72 51.2s0 51.2-30.72 51.2zM378.88 256h-348.16c-30.72 0-30.72-20.48-30.72-51.2s0-51.2 30.72-51.2h348.16c30.72 0 30.72 20.48 30.72 51.2s0 51.2-30.72 51.2zM378.88 768h-348.16c-30.72 0-30.72-20.48-30.72-51.2s0-51.2 30.72-51.2h348.16c30.72 0 30.72 20.48 30.72 51.2s0 51.2-30.72 51.2z" />
<glyph unicode="&#xe601;" d="M860.779 809.79c-95.16 95.040-211.621 142.53-349.411 142.53-136.169 0-251.399-47.49-345.72-142.53-96.809-98.31-145.169-214.621-145.169-348.99 0-134.34 48.359-249.87 145.169-346.5 96.78-96.69 212.011-145.020 345.72-145.020 135.331 0 252.631 48.75 351.87 146.22 93.51 92.579 140.282 207.69 140.282 345.3 0 137.639-47.581 253.979-142.741 348.99zM799.249 179.4c-81.21-80.281-176.76-120.39-286.65-120.39-109.919 0-204.66 39.719-284.22 119.189-79.56 79.471-119.34 173.671-119.34 282.601 0 46.080 7.274 89.639 21.659 130.709l130.245-57.645h-9.39v-58.409h46.095c0-8.25-0.825-16.471-0.825-24.69v-14.011h-45.271v-58.409h53.49c7.41-43.619 23.865-78.99 46.080-106.979 46.080-60.901 120.135-93.811 200.775-93.811 52.68 0 100.381 15.63 128.37 31.291l-19.77 91.32c-17.28-9.061-55.92-21.39-93.779-21.39-41.16 0-79.815 12.329-106.156 41.97-12.345 13.981-21.39 32.91-27.135 57.6h178.89l254.19-112.515c-17.61-31.199-39.959-60.030-67.26-86.429zM479.569 436.754l-1.080 0.826 1.86-0.826h-0.78zM632.599 475.455h7.35v58.409h-139.32l-56.595 25.051c4.875 10.95 10.635 20.745 17.355 28.41 25.516 31.319 61.71 44.46 101.221 44.46 36.21 0 69.929-10.68 91.32-19.739l23.040 93.81c-29.64 13.139-73.23 24.659-123.421 24.659-77.339 0-143.175-31.259-190.080-83.909-10.41-12.031-19.44-25.531-27.63-39.81l-161.639 71.535c15.66 23.49 34.079 46.049 55.41 67.559 77.13 78.66 171.419 117.991 282.99 117.991 111.54 0 206.28-39.331 284.22-117.991 78.72-77.82 118.080-172.829 118.080-285.089 0-36.99-4.199-71.88-12.48-104.76l-269.82 119.415z" />
<glyph unicode="&#xe602;" d="M1024 576h-384l143.53 143.53c-72.53 72.526-168.96 112.47-271.53 112.47s-199-39.944-271.53-112.47c-72.526-72.53-112.47-168.96-112.47-271.53s39.944-199 112.47-271.53c72.53-72.526 168.96-112.47 271.53-112.47s199 39.944 271.528 112.472c6.056 6.054 11.86 12.292 17.456 18.668l96.32-84.282c-93.846-107.166-231.664-174.858-385.304-174.858-282.77 0-512 229.23-512 512s229.23 512 512 512c141.386 0 269.368-57.326 362.016-149.984l149.984 149.984v-384z" />
<glyph unicode="&#xe603;" d="M511.369 952.32c137.79 0 254.28-47.505 349.44-142.53 95.131-95.040 142.711-211.364 142.711-348.99s-46.771-252.735-140.251-345.3c-99.27-97.485-216.57-146.22-351.901-146.22-133.68 0-248.939 48.315-345.72 144.989-96.794 96.661-145.169 212.191-145.169 346.531s48.375 250.68 145.169 348.99c94.321 95.025 209.581 142.53 345.72 142.53zM131.060 592.83c-14.67-41.475-22.005-85.485-22.005-132.030 0-108.961 39.779-203.161 119.34-282.615 79.576-79.47 174.285-119.206 284.205-119.206 109.921 0 205.471 40.125 286.68 120.421 27.179 26.279 49.559 54.93 67.14 85.994l-185.28 82.515c-12.571-62.34-68.131-104.46-135.3-109.411v-75.765h-56.416v75.765c-55.17 0.631-108.465 23.175-149.204 58.861l67.71 68.264c32.594-30.689 65.189-44.475 109.709-44.475 28.831 0 60.81 11.28 60.81 48.856 0 13.319-5.159 22.575-13.289 29.534l-105.21 46.845c-28.86 12.855-53.31 23.745-77.851 34.651l-251.039 111.795zM512.599 863.865c-111.54 0-205.859-39.329-282.96-117.989-20.999-21.166-39.239-43.291-54.749-66.375l187.89-83.655c16.98 52.11 66.51 83.715 126.645 87.254v75.766h56.416v-75.766c38.879-1.874 81.509-12.525 123.51-45.089l-64.559-66.375c-23.82 16.905-53.911 28.815-84.030 28.815-24.436 0-58.921-7.529-58.921-38.205 0-4.68 1.561-8.806 4.41-12.48l105.391-46.936c27.21-12.105 53.19-23.67 78.929-35.13l251.85-112.14c8.341 33.001 12.511 68.085 12.511 105.241 0 112.245-39.36 207.269-118.111 285.075-77.94 78.66-172.649 117.989-284.22 117.989z" />
<glyph unicode="&#xe604;" d="M391.75 377.447c-20.797 0-36.5 7.603-47.1 22.806-10.7 15.097-16 35.297-16 60.497 0 55.5 20.997 83.303 63.1 83.303 8.4 0 17.5-2.803 27.3-8.403s18.097-15.4 24.8-29.4l63.1 32.8c-25.2 45.4-67 68.1-125.303 68.1-39.85 0-72.797-13.2-98.794-39.5-26.103-26.4-39.206-61.997-39.206-106.9 0-46 12.956-81.9 38.703-107.7 25.8-25.8 59.803-38.6 101.8-38.6 26.4 0 50.5 6.6 72.353 19.697 21.847 13.206 38.947 31.303 51.347 54.303l-58.1 29.4c-11.2-26.9-30.553-40.403-58-40.403zM663.447 377.447c-20.797 0-36.494 7.603-47.1 22.806-10.7 15.097-16 35.297-16 60.497 0 55.5 21.003 83.303 63.1 83.303 8.903 0 18.303-2.803 28.103-8.403 9.853-5.6 18.1-15.4 24.9-29.4l62.197 32.8c-24.7 45.4-66.197 68.1-124.497 68.1-39.8 0-72.75-13.2-98.8-39.5-26.097-26.4-39.103-61.997-39.103-106.9 0-46 12.703-81.9 38.253-107.7 25.5-25.8 59.55-38.6 102.2-38.6 25.747 0 49.647 6.6 71.45 19.697 21.903 13.206 39.3 31.303 52.203 54.303l-58.903 29.4c-11.2-26.9-30.6-40.403-58.003-40.403zM860.816 809.787c-95.159 95.038-211.659 142.525-349.463 142.525-136.134 0-251.391-47.487-345.709-142.525-96.778-98.306-145.163-214.613-145.163-348.978 0-134.353 48.384-249.85 145.163-346.506 96.778-96.687 212.034-145.016 345.709-145.016 135.344 0 252.656 48.747 351.922 146.216 93.478 92.578 140.244 207.684 140.244 345.306 0 137.634-47.575 253.972-142.703 348.978zM799.284 179.403c-81.206-80.281-176.769-120.419-286.7-120.419-109.916 0-204.622 39.75-284.181 119.219-79.556 79.434-119.337 173.662-119.337 282.606 0 108.956 40.169 203.994 120.566 285.081 77.1 78.656 171.416 117.988 282.953 117.988 111.581 0 206.306-39.331 284.244-117.988 78.747-77.819 118.103-172.825 118.103-285.081 0-113.053-38.547-206.859-115.647-281.406z" />
<glyph unicode="&#xe605;" d="M512-12.8l-281.6 268.8h179.2v665.6h204.8v-665.6h179.2l-281.6-268.8z" />
<glyph unicode="&#xe606;" d="M38.4 460.8l268.8 281.6v-179.2h665.6v-204.8h-665.6v-179.2l-268.8 281.6z" />
<glyph unicode="&#xe607;" d="M716.8 179.2v179.2h-665.6v204.8h665.6v179.2l268.8-281.6-268.8-281.6z" />
<glyph unicode="&#xe609;" d="M716.8 870.4v-870.4l-204.8 204.8-204.8-204.8v870.4c0 28.314 29.952 52.224 51.2 51.2h307.2c35.277 1.024 51.2-22.886 51.2-51.2z" />
<glyph unicode="&#xe60a;" d="M768 972.8h-204.8c-28.314 0-51.2-22.886-51.2-51.2l1.178-11.366c56.422 0 102.4-45.926 102.4-102.4v-581.581l50.022 60.467 153.6-184.32v819.2c0 28.314-22.886 51.2-51.2 51.2zM461.978 819.2h-205.978c-28.314 0-51.2-22.886-51.2-51.2v-819.2l153.6 184.32 153.6-184.32v819.2c0 28.314-21.709 51.2-50.022 51.2z" />
<glyph unicode="&#xe60b;" d="M231.219 586.342c22.323 22.835 53.402 24.627 80.691 0l200.090-191.846 200.090 191.846c27.29 24.627 58.419 22.835 80.589 0 22.323-22.784 20.89-61.286 0-82.688-20.787-21.402-240.384-230.502-240.384-230.502-11.11-11.418-25.702-17.152-40.294-17.152s-29.184 5.734-40.397 17.152c0 0-219.494 209.101-240.384 230.502-20.941 21.402-22.323 59.904 0 82.688z" />
<glyph unicode="&#xe60c;" d="M637.542 741.581c22.835-22.323 24.627-53.402 0-80.691l-191.846-200.090 191.846-200.090c24.627-27.29 22.835-58.419 0-80.589-22.784-22.323-61.286-20.89-82.688 0-21.402 20.787-230.502 240.384-230.502 240.384-11.418 11.11-17.152 25.702-17.152 40.294s5.734 29.184 17.152 40.397c0 0 209.101 219.494 230.502 240.384 21.402 20.941 59.904 22.323 82.688 0z" />
<glyph unicode="&#xe60d;" d="M469.146 741.581c21.402-20.89 230.502-240.384 230.502-240.384 11.418-11.213 17.152-25.805 17.152-40.397s-5.734-29.184-17.152-40.294c0 0-209.101-219.597-230.502-240.384-21.402-20.89-59.904-22.323-82.688 0-22.835 22.221-24.627 53.299 0 80.589l191.846 200.090-191.846 200.090c-24.627 27.29-22.835 58.419 0 80.691 22.784 22.323 61.286 20.941 82.688 0z" />
<glyph unicode="&#xe60e;" d="M891.802 660.019c13.926 13.722 36.301 13.722 50.125 0s13.875-35.891 0-49.613l-404.89-400.896c-13.824-13.722-36.198-13.722-50.125 0l-404.89 400.896c-13.824 13.722-13.824 35.891 0 49.613 13.875 13.722 36.301 13.722 50.125 0l379.853-365.619 379.802 365.619z" />
<glyph unicode="&#xe60f;" d="M711.219 80.998c13.722-13.926 13.722-36.301 0-50.125s-35.891-13.875-49.613 0l-400.896 404.89c-13.722 13.824-13.722 36.198 0 50.125l400.896 404.89c13.722 13.824 35.891 13.824 49.613 0 13.722-13.875 13.722-36.301 0-50.125l-365.619-379.853 365.619-379.802z" />
<glyph unicode="&#xe610;" d="M678.4 460.8l-365.619 379.904c-13.722 13.824-13.722 36.198 0 50.125 13.722 13.824 35.891 13.824 49.613 0l400.896-404.89c13.722-13.875 13.722-36.301 0-50.125l-400.896-404.89c-13.722-13.875-35.891-13.824-49.613 0-13.722 13.773-13.722 36.198 0 50.125l365.619 379.75z" />
<glyph unicode="&#xe611;" d="M132.198 261.581c-13.926-13.722-36.301-13.722-50.125 0s-13.875 35.891 0 49.613l404.89 400.896c13.824 13.722 36.198 13.722 50.125 0l404.89-400.896c13.824-13.722 13.824-35.891 0-49.613-13.875-13.722-36.301-13.722-50.074 0l-379.904 365.619-379.802-365.619z" />
<glyph unicode="&#xe612;" d="M792.781 335.258c-22.323-22.835-53.402-24.627-80.691 0l-200.090 191.846-200.090-191.846c-27.29-24.627-58.419-22.835-80.589 0-22.323 22.784-20.89 61.286 0 82.688 20.787 21.402 240.384 230.502 240.384 230.502 11.11 11.418 25.702 17.152 40.294 17.152s29.184-5.734 40.397-17.152c0 0 219.494-209.101 240.384-230.502 20.941-21.402 22.323-59.904 0-82.688z" />
<glyph unicode="&#xe613;" d="M640.256 527.462l-128.256-117.862-128.307 117.862c-10.138 10.035-26.522 10.035-36.762 0-10.086-10.035-10.086-26.368 0-36.352l146.637-143.718c10.189-10.035 26.624-10.035 36.71 0l146.637 143.718c10.189 9.984 10.138 26.317 0 36.352-10.086 10.035-26.47 10.035-36.659 0zM512 952.32c-271.462 0-491.52-220.058-491.52-491.52 0-271.514 220.058-491.52 491.52-491.52s491.52 220.006 491.52 491.52c0 271.462-220.058 491.52-491.52 491.52zM512 33.075c-236.288 0-427.725 191.488-427.725 427.725s191.437 427.725 427.725 427.725c236.186 0 427.725-191.488 427.725-427.725s-191.539-427.725-427.725-427.725z" />
<glyph unicode="&#xe614;" d="M578.662 625.869c-10.035 10.086-26.368 10.086-36.352 0l-143.718-146.688c-10.035-10.189-10.035-26.624 0-36.71l143.718-146.637c9.984-10.189 26.317-10.138 36.352 0 10.035 10.086 10.035 26.522 0 36.71l-117.862 128.256 117.862 128.307c10.035 10.138 10.035 26.522 0 36.762zM512 952.32c-271.462 0-491.52-220.058-491.52-491.52 0-271.514 220.058-491.52 491.52-491.52s491.52 220.006 491.52 491.52c0 271.462-220.058 491.52-491.52 491.52zM512 33.075c-236.288 0-427.725 191.488-427.725 427.725s191.437 427.725 427.725 427.725c236.186 0 427.725-191.488 427.725-427.725s-191.539-427.725-427.725-427.725z" />
<glyph unicode="&#xe615;" d="M563.2 460.8l-117.862 128.307c-10.035 10.138-10.035 26.573 0 36.762 10.035 10.086 26.368 10.086 36.352 0l143.718-146.637c10.035-10.189 10.035-26.624 0-36.71l-143.718-146.637c-9.984-10.189-26.317-10.138-36.352 0-10.035 10.086-10.035 26.522 0 36.71l117.862 128.205zM512 952.32c271.462 0 491.52-220.058 491.52-491.52 0-271.514-220.058-491.52-491.52-491.52s-491.52 220.006-491.52 491.52c0 271.462 220.058 491.52 491.52 491.52zM512 33.075c236.186 0 427.725 191.488 427.725 427.725s-191.539 427.725-427.725 427.725c-236.288 0-427.725-191.488-427.725-427.725-0.051-236.237 191.437-427.725 427.725-427.725z" />
<glyph unicode="&#xe616;" d="M530.381 574.208c-10.189 10.035-26.624 10.035-36.71 0l-146.637-143.718c-10.189-9.984-10.138-26.317 0-36.352 10.086-10.035 26.522-10.035 36.71 0l128.256 117.862 128.307-117.862c10.138-10.035 26.522-10.035 36.762 0 10.086 10.035 10.086 26.368 0 36.352l-146.688 143.718zM512 952.32c-271.462 0-491.52-220.058-491.52-491.52 0-271.514 220.058-491.52 491.52-491.52s491.52 220.006 491.52 491.52c0 271.462-220.058 491.52-491.52 491.52zM512 33.075c-236.288 0-427.725 191.488-427.725 427.725s191.437 427.725 427.725 427.725c236.186 0 427.725-191.488 427.725-427.725s-191.539-427.725-427.725-427.725z" />
<glyph unicode="&#xe617;" d="M473.293 485.376l-368.794 253.389c-29.286 19.61-53.299 5.222-53.299-32v-491.981c0-37.12 24.013-51.507 53.299-32l368.794 253.491c0 0 14.285 10.189 14.285 24.474 0 14.336-14.285 24.627-14.285 24.627zM952.32 460.749c0-14.285-14.285-24.474-14.285-24.474l-368.794-253.491c-29.286-19.507-53.299-5.12-53.299 32v491.981c0 37.222 24.013 51.61 53.299 32l368.742-253.389c0 0 14.336-10.291 14.336-24.627z" />
<glyph unicode="&#xe618;" d="M765.901 738.765l-368.794-253.389c0 0-14.285-10.291-14.285-24.627s14.285-24.525 14.285-24.525l368.794-253.491c29.286-19.456 53.299-5.069 53.299 32.051v491.981c0 37.222-24.013 51.61-53.299 32zM307.2 768h-51.2c-28.314 0-51.2-2.458-51.2-30.72v-552.96c0-28.262 22.886-30.72 51.2-30.72h51.2c28.314 0 51.2 2.458 51.2 30.72v552.96c0 28.262-22.886 30.72-51.2 30.72z" />
<glyph unicode="&#xe619;" d="M626.893 485.376l-368.794 253.389c-29.286 19.61-53.299 5.222-53.299-32v-491.981c0-37.12 24.013-51.507 53.299-32l368.794 253.491c0 0 14.285 10.189 14.285 24.474 0 14.336-14.285 24.627-14.285 24.627zM716.8 768h51.2c28.314 0 51.2-2.458 51.2-30.72v-552.96c0-28.262-22.886-30.72-51.2-30.72h-51.2c-28.314 0-51.2 2.458-51.2 30.72v552.96c0 28.262 22.886 30.72 51.2 30.72z" />
<glyph unicode="&#xe61a;" d="M768 819.2h-102.4c-28.314 0-51.2-2.458-51.2-30.72v-655.36c0-28.262 22.886-30.72 51.2-30.72h102.4c28.314 0 51.2 2.458 51.2 30.72v655.36c0 28.262-22.886 30.72-51.2 30.72zM358.4 819.2h-102.4c-28.314 0-51.2-2.458-51.2-30.72v-655.36c0-28.262 22.886-30.72 51.2-30.72h102.4c28.314 0 51.2 2.458 51.2 30.72v655.36c0 28.262-22.886 30.72-51.2 30.72z" />
<glyph unicode="&#xe61b;" d="M768 460.749c0-15.309-15.616-26.317-15.616-26.317l-438.323-271.514c-31.949-20.941-58.061-5.427-58.061 34.253v527.206c0 39.782 26.112 55.194 58.112 34.304l438.323-271.616c-0.051 0 15.565-11.008 15.565-26.317z" />
<glyph unicode="&#xe61c;" d="M512 819.2c-197.939 0-358.4-160.41-358.4-358.4 0-197.888 160.461-358.4 358.4-358.4s358.4 160.512 358.4 358.4c0 197.99-160.461 358.4-358.4 358.4z" />
<glyph unicode="&#xe61d;" d="M819.2 717.056v-502.17c0-33.843-27.443-61.286-61.235-61.286h-502.118c-28.211 0-51.046 22.835-51.046 51.046v502.118c0 33.792 27.443 61.235 61.235 61.235h502.17c28.16 0 50.995-22.835 50.995-50.944z" />
<glyph unicode="&#xe61e;" d="M512.051 573.44c-62.208 0-112.691-50.432-112.691-112.64s50.483-112.64 112.691-112.64c62.208 0 112.589 50.432 112.589 112.64s-50.381 112.64-112.589 112.64zM153.651 573.44c-62.208 0-112.691-50.432-112.691-112.64s50.483-112.64 112.691-112.64c62.208 0 112.589 50.483 112.589 112.64s-50.381 112.64-112.589 112.64zM870.451 573.44c-62.208 0-112.691-50.432-112.691-112.64s50.483-112.64 112.691-112.64c62.208 0 112.589 50.432 112.589 112.64s-50.381 112.64-112.589 112.64z" />
<glyph unicode="&#xe61f;" d="M512.051 573.44c-62.208 0-112.691-50.432-112.691-112.64s50.483-112.64 112.691-112.64c62.208 0 112.589 50.432 112.589 112.64s-50.381 112.64-112.589 112.64zM512.051 706.56c62.208 0 112.589 50.483 112.589 112.64s-50.381 112.64-112.589 112.64c-62.208 0-112.691-50.432-112.691-112.64s50.483-112.64 112.691-112.64zM512.051 215.040c-62.208 0-112.691-50.432-112.691-112.64s50.483-112.64 112.691-112.64c62.208 0 112.589 50.432 112.589 112.64s-50.381 112.64-112.589 112.64z" />
<glyph unicode="&#xe620;" d="M839.68 768c0 67.891-54.989 122.88-122.88 122.88s-122.88-54.989-122.88-122.88c0-49.203 29.082-91.341 70.861-110.95-4.198-81.101-65.024-108.646-170.752-148.275-44.544-16.742-93.645-35.277-135.629-63.181v210.995c42.24 19.456 71.68 61.901 71.68 111.411 0 67.891-54.989 122.88-122.88 122.88s-122.88-54.989-122.88-122.88c0-49.51 29.491-91.955 71.68-111.411v-391.629c-42.24-19.405-71.68-61.85-71.68-111.36 0-67.891 54.989-122.88 122.88-122.88s122.88 55.040 122.88 122.88c0 49.203-29.082 91.341-70.861 110.95 4.198 81.050 65.075 108.646 170.752 148.275 103.936 39.014 232.499 87.603 237.568 243.507 42.445 19.354 72.141 61.952 72.141 111.667zM307.2 838.912c39.117 0 70.861-31.693 70.861-70.912 0-39.117-31.744-70.912-70.861-70.912-39.168 0-70.861 31.795-70.861 70.912 0 39.219 31.693 70.912 70.861 70.912zM307.2 82.688c-39.219 0-70.912 31.795-70.912 70.912 0 39.219 31.693 70.912 70.912 70.912 39.117 0 70.861-31.693 70.861-70.912 0-39.117-31.744-70.912-70.861-70.912zM716.8 697.088c-39.219 0-70.912 31.795-70.912 70.912 0 39.219 31.693 70.912 70.912 70.912 39.117 0 70.861-31.693 70.861-70.912 0-39.117-31.744-70.912-70.861-70.912z" />
<glyph unicode="&#xe621;" d="M716.8 225.28c-49.51 0-91.955-29.491-111.411-71.68h-170.189c-42.394 0-76.8 34.406-76.8 76.8v197.12c23.347-11.162 49.203-17.92 76.8-17.92h170.189c19.456-42.189 61.85-71.68 111.411-71.68 67.891 0 122.88 55.040 122.88 122.88s-54.989 122.88-122.88 122.88c-49.51 0-91.955-29.491-111.411-71.68h-170.189c-42.394 0-76.8 34.406-76.8 76.8v118.989c42.24 19.456 71.68 61.901 71.68 111.411 0 67.891-54.989 122.88-122.88 122.88s-122.88-54.989-122.88-122.88c0-49.51 29.491-91.955 71.68-111.411v-477.389c0-98.97 80.23-179.2 179.2-179.2h170.189c19.456-42.189 61.85-71.68 111.411-71.68 67.891 0 122.88 55.040 122.88 122.88s-54.989 122.88-122.88 122.88zM716.8 531.712c39.117 0 70.861-31.693 70.861-70.912 0-39.117-31.744-70.912-70.861-70.912-39.219 0-70.912 31.795-70.912 70.912 0.051 39.219 31.744 70.912 70.912 70.912zM307.2 890.112c39.117 0 70.861-31.693 70.861-70.912 0-39.117-31.744-70.912-70.861-70.912-39.168 0-70.861 31.795-70.861 70.912 0 39.219 31.693 70.912 70.861 70.912zM716.8 31.488c-39.219 0-70.912 31.795-70.912 70.912 0 39.219 31.693 70.912 70.912 70.912 39.117 0 70.861-31.693 70.861-70.912 0-39.117-31.744-70.912-70.861-70.912z" />
<glyph unicode="&#xe622;" d="M563.2 265.011v391.578c42.24 19.456 71.68 61.85 71.68 111.411 0 67.891-54.989 122.88-122.88 122.88s-122.88-54.989-122.88-122.88c0-49.51 29.491-91.955 71.68-111.411v-391.629c-42.24-19.405-71.68-61.85-71.68-111.36 0-67.891 54.989-122.88 122.88-122.88s122.88 55.040 122.88 122.88c0 49.51-29.44 91.955-71.68 111.411zM512 838.912c39.117 0 70.861-31.693 70.861-70.912 0-39.117-31.744-70.912-70.861-70.912-39.168 0-70.861 31.795-70.861 70.912 0 39.219 31.693 70.912 70.861 70.912zM512 82.688c-39.219 0-70.912 31.795-70.912 70.912 0 39.219 31.693 70.912 70.912 70.912 39.117 0 70.861-31.693 70.861-70.912 0-39.117-31.744-70.912-70.861-70.912z" />
<glyph unicode="&#xe623;" d="M430.080 768c0 67.891-54.989 122.88-122.88 122.88s-122.88-54.989-122.88-122.88c0-49.51 29.491-91.955 71.68-111.411v-391.629c-42.24-19.405-71.68-61.85-71.68-111.36 0-67.891 54.989-122.88 122.88-122.88s122.88 55.040 122.88 122.88c0 49.51-29.491 91.955-71.68 111.411v391.578c42.24 19.456 71.68 61.901 71.68 111.411zM378.061 153.6c0-39.117-31.744-70.912-70.861-70.912-39.219 0-70.912 31.795-70.912 70.912 0 39.219 31.693 70.912 70.912 70.912 39.117 0 70.861-31.693 70.861-70.912zM307.2 697.088c-39.168 0-70.861 31.795-70.861 70.912 0 39.219 31.693 70.912 70.912 70.912 39.117 0 70.861-31.693 70.861-70.912-0.051-39.117-31.795-70.912-70.912-70.912zM768 265.011v391.578c42.24 19.456 71.68 61.85 71.68 111.411 0 67.891-54.989 122.88-122.88 122.88s-122.88-54.989-122.88-122.88c0-49.51 29.491-91.955 71.68-111.411v-391.629c-42.24-19.456-71.68-61.85-71.68-111.411 0-67.891 54.989-122.88 122.88-122.88s122.88 55.040 122.88 122.88c0 49.562-29.44 92.006-71.68 111.462zM645.939 768c0 39.219 31.693 70.912 70.912 70.912 39.117 0 70.861-31.693 70.861-70.912 0-39.117-31.744-70.912-70.861-70.912-39.219 0-70.912 31.795-70.912 70.912zM716.8 82.688c-39.219 0-70.912 31.795-70.912 70.912 0 39.219 31.693 70.912 70.912 70.912 39.117 0 70.861-31.693 70.861-70.912 0-39.117-31.744-70.912-70.861-70.912z" />
<glyph unicode="&#xe624;" d="M921.6 213.811v118.989c0 98.97-80.23 179.2-179.2 179.2h-102.4c-42.394 0-76.8 34.406-76.8 76.8v118.989c42.24 19.456 71.68 61.85 71.68 111.411 0 67.891-54.989 122.88-122.88 122.88s-122.88-54.989-122.88-122.88c0-49.51 29.491-91.955 71.68-111.411v-118.989c0-42.394-34.406-76.8-76.8-76.8h-102.4c-98.97 0-179.2-80.23-179.2-179.2v-118.989c-42.24-19.456-71.68-61.901-71.68-111.411 0-67.891 54.989-122.88 122.88-122.88s122.88 55.040 122.88 122.88c0 49.51-29.491 91.955-71.68 111.411v118.989c0 42.394 34.406 76.8 76.8 76.8h102.4c27.597 0 53.453 6.758 76.8 17.92v-213.709c-42.24-19.456-71.68-61.901-71.68-111.411 0-67.891 54.989-122.88 122.88-122.88s122.88 55.040 122.88 122.88c0 49.51-29.491 91.955-71.68 111.411v213.709c23.347-11.162 49.203-17.92 76.8-17.92h102.4c42.394 0 76.8-34.406 76.8-76.8v-118.989c-42.24-19.456-71.68-61.85-71.68-111.411 0-67.891 54.989-122.88 122.88-122.88s122.88 55.040 122.88 122.88c0 49.51-29.44 91.955-71.68 111.411zM512 890.112c39.117 0 70.861-31.693 70.861-70.912 0-39.117-31.744-70.912-70.861-70.912-39.168 0-70.861 31.795-70.861 70.912 0 39.219 31.693 70.912 70.861 70.912zM153.6 31.488c-39.219 0-70.912 31.795-70.912 70.912 0 39.219 31.693 70.912 70.912 70.912 39.117 0 70.861-31.693 70.861-70.912 0-39.117-31.744-70.912-70.861-70.912zM512 31.488c-39.219 0-70.912 31.795-70.912 70.912 0 39.219 31.693 70.912 70.912 70.912 39.117 0 70.861-31.693 70.861-70.912 0-39.117-31.744-70.912-70.861-70.912zM870.4 31.488c-39.219 0-70.912 31.795-70.912 70.912 0 39.219 31.693 70.912 70.912 70.912 39.117 0 70.861-31.693 70.861-70.912 0-39.117-31.744-70.912-70.861-70.912z" />
<glyph unicode="&#xe625;" d="M209.92 250.88l-158.72-148.48 102.4-102.4 148.48 158.72 107.52-107.52v307.2h-307.2l107.52-107.52zM972.8 819.2l-102.4 102.4-148.48-158.72-107.52 107.52v-307.2h307.2l-107.52 107.52 158.72 148.48z" />
<glyph unicode="&#xe626;" d="M357.734 410.266l-150.067-155.187-105.267 124.365v-328.243h327.014l-124.416 106.547 155.136 150.118-102.4 102.4zM594.586 870.4l124.416-106.547-155.136-150.118 102.4-102.4 150.067 155.187 105.267-124.365v328.243h-327.014z" />
<glyph unicode="&#xe627;" d="M307.2 460.8l153.6-153.6v102.4h409.6v102.4h-409.6v102.4l-153.6-153.6zM204.8 870.4c-28.314 0-51.2-2.406-51.2-30.72v-757.76c0-28.211 22.886-30.72 51.2-30.72 28.262 0 51.2 2.509 51.2 30.72v757.76c0 28.314-22.938 30.72-51.2 30.72z" />
<glyph unicode="&#xe628;" d="M563.2 614.4v-102.4h-409.6v-102.4h409.6v-102.4l153.6 153.6-153.6 153.6zM768 839.68v-757.76c0-28.211 22.938-30.72 51.2-30.72 28.314 0 51.2 2.509 51.2 30.72v757.76c0 28.314-22.886 30.72-51.2 30.72-28.262 0-51.2-2.406-51.2-30.72z" />
<glyph unicode="&#xe629;" d="M286.822-40.96c-66.202 0-128.205 28.416-172.954 73.728-86.784 87.859-110.95 241.203 10.701 364.339 71.219 72.090 356.659 361.114 499.098 505.344 50.586 51.2 114.944 71.014 176.538 54.272 60.57-16.384 110.131-66.611 126.362-127.898 16.486-62.464-3.021-127.642-53.555-178.842l-477.338-483.328c-27.238-27.597-58.061-43.93-88.986-47.206-30.669-3.277-59.904 6.656-80.384 27.392-37.069 37.683-42.394 108.39 19.354 170.854l335.258 339.456c13.773 13.926 36.096 13.926 49.869 0s13.773-36.557 0-50.483l-335.309-339.507c-28.979-29.286-31.642-57.293-19.302-69.837 5.427-5.427 13.619-7.936 23.091-6.861 14.49 1.485 31.027 11.059 46.541 26.675l477.338 483.277c32.768 33.178 45.312 72.192 35.328 109.824-9.83 37.12-39.834 67.482-76.442 77.466-37.171 10.086-75.776-2.662-108.544-35.84-142.438-144.282-427.827-433.254-499.098-505.344-92.979-94.157-70.707-202.547-10.701-263.322 60.058-60.774 167.014-83.405 260.045 10.854l499.098 505.344c13.773 13.926 36.096 13.926 49.869 0s13.773-36.557 0-50.534l-499.098-505.344c-58.829-59.494-124.723-84.48-186.778-84.48z" />
<glyph unicode="&#xe62a;" d="M424.653 102.502c-22.272 0-43.366 10.394-56.883 28.314l-182.938 241.715c-23.808 31.386-17.613 76.083 13.824 99.891 31.488 23.91 76.186 17.613 99.994-13.824l120.371-158.925 302.643 485.99c20.838 33.382 64.87 43.622 98.355 22.784 33.434-20.787 43.725-64.819 22.835-98.304l-357.581-573.952c-12.39-20.019-33.843-32.512-57.344-33.587-1.126-0.102-2.15-0.102-3.277-0.102z" />
<glyph unicode="&#xe62b;" d="M512 890.88c-237.517 0-430.080-192.563-430.080-430.080s192.563-430.080 430.080-430.080 430.080 192.563 430.080 430.080c0 237.517-192.563 430.080-430.080 430.080zM757.197 304.077l-88.525-88.525-156.672 156.723-156.723-156.672-88.525 88.525 156.774 156.672-156.723 156.723 88.525 88.474 156.672-156.672 156.723 156.723 88.525-88.525-156.774-156.723 156.723-156.723z" />
<glyph unicode="&#xe62c;" d="M512 890.88c-237.517 0-430.080-192.563-430.080-430.080s192.563-430.080 430.080-430.080 430.080 192.563 430.080 430.080c0 237.517-192.563 430.080-430.080 430.080zM768 409.6h-512v102.4h512v-102.4z" />
<glyph unicode="&#xe62d;" d="M512 890.88c-237.517 0-430.080-192.563-430.080-430.080s192.563-430.080 430.080-430.080 430.080 192.563 430.080 430.080c0 237.517-192.563 430.080-430.080 430.080zM768 409.6h-204.8v-204.8h-102.4v204.8h-204.8v102.4h204.8v204.8h102.4v-204.8h204.8v-102.4z" />
<glyph unicode="&#xe62e;" d="M292.813 217.6c-12.083 0-24.269 4.25-33.997 12.902l-259.072 230.298 273.459 243.098c21.094 18.688 53.453 16.896 72.243-4.25s16.896-53.504-4.25-72.294l-187.341-166.554 172.954-153.702c21.146-18.79 23.040-51.149 4.25-72.294-10.086-11.418-24.166-17.203-38.246-17.203zM750.797 217.702l273.459 243.098-259.072 230.298c-21.146 18.79-53.504 16.896-72.243-4.25-18.79-21.146-16.896-53.504 4.25-72.294l172.954-153.754-187.341-166.502c-21.146-18.79-23.040-51.149-4.25-72.294 10.086-11.418 24.166-17.203 38.246-17.203 12.083 0 24.269 4.25 33.997 12.902zM511.283 145.152l102.4 614.4c4.659 27.904-14.182 54.272-42.086 58.931-28.006 4.71-54.323-14.182-58.88-42.086l-102.4-614.4c-4.659-27.904 14.182-54.272 42.086-58.931 2.867-0.461 5.632-0.666 8.448-0.666 24.576 0 46.285 17.766 50.432 42.752z" />
<glyph unicode="&#xe62f;" d="M563.2 114.944v-114.944h-102.4v109.722c-87.654 5.12-156.979 30.157-217.139 92.006l87.962 89.088c43.981-44.544 103.578-59.392 168.038-59.392 80.128 0 123.136 30.669 123.136 87.142 0 24.73-6.81 45.517-21.504 59.392-13.67 12.851-29.286 19.814-61.542 24.73l-84.070 11.878c-59.597 8.909-103.526 27.699-134.861 58.419-33.178 33.638-49.818 79.155-49.818 138.598 0 110.336 70.758 191.642 189.798 209.92v100.096h102.4v-98.918c70.758-7.424 126.208-31.744 174.848-79.411l-85.965-86.118c-43.981 42.598-96.717 48.486-142.694 48.486-72.294 0-107.469-40.55-107.469-89.088 0-17.818 5.888-36.659 20.531-50.483 13.67-12.902 36.147-23.757 64.512-27.699l82.022-11.878c63.539-8.909 103.578-26.726 132.915-54.426 37.171-35.635 53.76-87.142 53.76-149.504 0-115.2-80.23-187.494-192.461-207.616z" />
<glyph unicode="&#xe630;" d="M924.672 873.421c-30.003 30.003-58.573 1.69-155.699-45.005-259.84-124.877-712.653-378.675-712.653-378.675l389.069-55.501 55.552-389.069c0 0 253.85 452.762 378.675 712.499 46.694 97.178 75.008 125.747 45.056 155.75zM831.283 773.325l-282.573-524.646-28.723 238.336 311.296 286.31z" />
<glyph unicode="&#xe631;" d="M522.394 944.077c-1.382 11.008-19.456 11.008-20.787 0-45.21-363.878-276.378-438.886-276.378-691.814 0-156.314 131.277-282.982 286.771-282.982 155.443 0 286.72 126.72 286.72 282.982 0 252.928-231.117 327.936-276.326 691.814zM478.72 541.798c-3.021-11.213-6.298-22.733-9.677-34.714-20.531-72.909-43.827-155.597-43.827-251.187 0-51.814-30.618-70.195-59.187-70.195-32.717 0-59.187 26.778-59.187 59.699 0 112.998 54.374 186.829 102.4 251.904 15.104 20.378 29.286 39.68 40.806 58.88 5.274 8.806 19.456 8.397 25.907-0.307 3.021-4.096 4.045-9.318 2.765-14.080z" />
<glyph unicode="&#xe632;" d="M747.93 349.594c0-43.008 12.237-60.16 44.237-60.16 71.322 0 116.736 90.88 116.736 242.022 0 231.014-168.346 341.606-378.522 341.606-216.218 0-412.877-144.998-412.877-419.021 0-261.734 172.032-404.275 436.224-404.275 89.702 0 149.914 9.83 242.022 40.55l19.763-82.278c-90.931-29.542-188.109-38.093-263.014-38.093-346.522 0-532.122 190.464-532.122 484.147 0 296.141 215.091 497.664 511.232 497.664 308.429 0 471.808-184.32 471.808-410.419 0-191.693-60.16-337.92-249.395-337.92-86.067 0-142.541 34.406-149.914 110.643-22.118-84.787-81.101-110.643-161.024-110.643-106.906 0-196.608 82.381-196.608 248.218 0 167.117 78.694 270.336 220.006 270.336 74.957 0 121.651-29.491 142.438-76.186l35.686 65.126h103.219v-361.318h0.102zM596.838 511.795c0 67.533-50.432 95.846-92.211 95.846-45.466 0-95.795-36.813-95.795-144.998 0-86.016 38.093-133.939 95.795-133.939 40.55 0 92.211 25.805 92.211 97.075v86.016z" />
<glyph unicode="&#xe633;" d="M969.011 686.899c-478.157-694.682-314.47 13.312-718.694-325.478l91.904-361.421h-103.373l-187.648 737.792 94.72 33.997c453.069 331.315 216.474-297.984 800.614-64.205 18.637 7.526 33.536-4.608 22.477-20.685z" />
<glyph unicode="&#xe634;" d="M348.314 0.102c-9.933 6.502 161.434 366.592 155.546 382.413-5.939 15.821-187.648 73.523-196.506 101.325-8.909 27.802 358.758 445.798 368.435 437.709 9.626-8.090-160.205-370.586-155.597-382.413 4.659-11.776 190.874-71.885 196.506-101.325 5.683-29.44-358.502-444.211-368.384-437.709z" />
<glyph unicode="&#xe635;" d="M614.4 364.851v-223.078l358.4 342.528-358.4 336.486v-203.93c-449.28 0-563.2-498.278-563.2-498.278 127.181 224.666 319.334 246.272 563.2 246.272z" />
<glyph unicode="&#xe636;" d="M512 952.32c-271.104 0-491.571-220.518-491.571-491.52s220.467-491.52 491.571-491.52c271.002 0 491.52 220.518 491.52 491.52s-220.518 491.52-491.52 491.52zM931.226 460.8c0-95.898-32.563-184.32-86.835-254.976-15.36 11.981-31.693 44.39-16.333 77.978 15.514 33.792 19.558 112.026 15.974 142.49-3.379 30.413-19.2 103.68-62.157 104.397-42.906 0.614-72.346 14.797-97.843 65.69-52.89 105.882 99.277 126.208 46.387 184.781-14.797 16.486-91.29-67.686-102.502 44.493-0.717 8.038 6.912 20.070 17.203 32.563 166.093-55.808 286.106-212.838 286.106-397.414zM454.4 875.878c-10.035-19.558-36.506-27.494-52.582-42.189-35.021-31.693-50.074-27.29-68.915-57.702-18.995-30.413-80.23-74.189-80.23-96.205s30.925-47.923 46.387-42.906c15.462 5.12 56.269 4.813 80.23-3.584 24.013-8.499 200.397-16.998 144.179-166.093-17.818-47.411-95.898-39.424-116.685-117.914-3.123-11.52-13.926-60.723-14.592-76.8-1.28-24.883 17.613-118.682-6.4-118.682-24.115 0-88.986 83.917-88.986 99.123s-16.794 68.506-16.794 114.176c0 45.619-77.722 44.902-77.722 105.574 0 54.682 42.138 81.92 32.666 108.186-9.267 26.112-83.302 26.982-114.176 30.208 53.914 139.827 180.736 243.61 333.619 264.806zM380.109 62.976c25.19 13.312 27.75 30.515 50.586 31.386 26.112 1.178 47.36 10.189 76.8 16.691 26.112 5.683 72.858 32.205 113.971 35.584 34.714 2.816 103.168-1.792 121.6-35.277-66.304-44.083-145.818-69.786-231.117-69.786-46.029 0-90.368 7.629-131.84 21.402z" />
<glyph unicode="&#xe637;" d="M721.408 858.47c-58.368 42.086-131.686 63.13-219.955 63.13-67.123 0-123.802-14.797-169.83-44.442-73.062-46.387-111.872-125.184-116.582-236.288h169.318c0 32.41 9.472 63.488 28.314 93.594 18.893 30.003 50.944 45.005 96.154 45.005 45.978 0 77.67-12.186 94.925-36.506 17.357-24.422 26.010-51.405 26.010-80.998 0-25.805-12.902-49.408-28.518-70.81-8.55-12.493-19.814-24.013-33.843-34.509 0 0-91.802-58.88-132.096-106.189-23.347-27.392-25.446-68.506-27.546-127.386-0.102-4.198 1.485-12.902 16.128-12.902 14.694 0 118.579 0 131.635 0 13.107 0 15.821 9.677 15.974 14.029 0.922 21.402 3.277 32.41 7.219 44.8 7.373 23.398 27.546 43.776 50.125 61.389l46.592 32.102c42.086 32.819 75.622 59.699 90.47 80.794 25.293 34.611 43.11 77.312 43.11 128-0.051 82.688-29.235 144.998-87.603 187.187zM498.739 208.691c-58.317 1.792-106.445-38.605-108.288-101.888-1.792-63.181 43.93-105.011 102.298-106.701 60.877-1.792 107.725 37.222 109.619 100.506 1.741 63.283-42.701 106.291-103.629 108.083z" />
<glyph unicode="&#xe638;" d="M512 952.32c-271.514 0-491.571-220.058-491.571-491.52 0-271.514 220.058-491.571 491.571-491.571 271.411 0 491.52 220.058 491.52 491.571 0 271.462-220.109 491.52-491.52 491.52zM557.875 774.861c47.923 0 62.003-27.802 62.003-59.597 0-39.68-31.744-76.39-85.965-76.39-45.363 0-66.97 22.784-65.638 60.518 0 31.795 26.573 75.469 89.6 75.469zM435.098 166.4c-32.768 0-56.678 19.917-33.792 107.213l37.53 154.88c6.502 24.781 7.578 34.714 0 34.714-9.779 0-52.326-17.101-77.414-33.997l-16.333 26.778c79.616 66.509 171.162 105.523 210.33 105.523 32.768 0 38.195-38.707 21.862-98.304l-43.008-162.816c-7.629-28.774-4.352-38.707 3.277-38.707 9.83 0 41.984 11.878 73.626 36.813l18.534-24.883c-77.466-77.414-161.894-107.213-194.611-107.213z" />
<glyph unicode="&#xe639;" d="M636.518 972.8c68.608 0 102.912-46.694 102.912-100.198 0-66.816-59.597-128.614-137.165-128.614-64.973 0-102.861 38.4-101.069 101.888 0 53.402 45.107 126.925 135.322 126.925zM425.421-51.2c-54.17 0-93.85 33.382-55.962 180.429l62.157 260.71c10.803 41.677 12.595 58.419 0 58.419-16.23 0-86.477-28.774-128.102-57.19l-27.034 45.056c131.686 111.923 283.187 177.51 348.211 177.51 54.118 0 63.13-65.178 36.096-165.376l-71.219-274.022c-12.595-48.384-7.219-65.075 5.427-65.075 16.23 0 69.478 20.070 121.805 61.798l30.72-41.677c-128.102-130.406-268.032-180.582-322.099-180.582z" />
<glyph unicode="&#xe63a;" d="M841.318 204.8c-104.704 261.478-226.918 330.394-226.918 460.8v153.6h25.6c14.131 0 25.6 11.469 25.6 25.6v51.2c0 14.131-11.469 25.6-25.6 25.6h-256c-14.131 0-25.6-11.469-25.6-25.6v-51.2c0-14.131 11.469-25.6 25.6-25.6h25.6v-153.6c0-130.406-122.214-199.322-226.918-460.8-33.331-83.2-118.938-204.8 329.318-204.8s362.65 121.6 329.318 204.8zM758.528 115.149c-35.942-10.752-107.469-22.989-246.528-22.989s-210.586 12.237-246.528 22.989c-12.749 3.789-17.715 18.586-13.21 32.154 11.264 34.304 32.512 93.594 72.243 159.795 97.075 161.741 197.786-25.446 281.6-25.446s60.826 79.923 93.389 25.446c39.629-66.253 60.979-125.491 72.243-159.795 4.506-13.568-0.461-28.314-13.21-32.154z" />
<glyph unicode="&#xe63b;" d="M859.546 808.346c-191.949 191.949-503.142 191.949-695.040 0-192-192-192-503.194-0.102-695.091 192-192 503.194-192 695.194 0 191.898 191.949 191.898 503.142-0.051 695.091zM345.498 294.298c-92.006 92.006-92.006 241.101 0 333.056 91.904 91.955 241.101 91.955 333.107 0 92.006-92.006 91.904-241.101 0-333.056-92.006-92.006-241.101-92.006-333.107 0zM785.766 313.395c49.562 92.109 49.613 202.701 0 294.861l91.29 49.152c65.997-122.419 65.997-270.848 0.102-393.114l-91.392 49.101zM708.557 825.907l-49.203-91.341c-92.109 49.51-202.701 49.51-294.707 0l-49.203 91.29c122.368 65.946 270.694 65.946 393.114 0.051zM146.944 657.408l91.341-49.203c-49.562-92.058-49.562-202.598-0.051-294.707l-91.341-49.203c-65.946 122.317-65.894 270.694 0.051 393.114zM315.341 95.795l49.203 91.29c92.109-49.613 202.752-49.613 294.861 0l49.203-91.392c-122.47-65.894-270.848-65.894-393.267 0.102z" />
<glyph unicode="&#xe63c;" d="M244.429 190.106l-107.776-166.4 11.469-54.426 54.272 11.622 107.725 166.298c-11.469 6.144-22.835 12.698-33.843 19.968-11.162 7.219-21.811 14.95-31.846 22.938zM700.723 248.218c0.717 1.485 1.178 3.123 1.843 4.71 2.714 5.99 5.12 11.981 7.066 18.278 0.307 1.126 0.461 2.253 0.819 3.277 1.997 6.963 3.686 13.824 5.018 20.89 0 0.358 0 0.614 0 1.075 9.984 59.853-7.424 126.618-47.258 186.931l56.832 87.757c65.485-8.346 122.112 8.141 149.35 50.278 47.258 72.858-10.24 194.15-128.256 271.002-118.118 76.902-252.058 80.128-299.213 7.373-27.341-42.189-19.354-100.71 15.002-157.338l-56.934-87.757c-71.117 11.93-139.059 0.819-189.594-32.768-0.307-0.102-0.666-0.205-0.87-0.41-5.888-3.994-11.622-8.397-16.998-13.005-0.87-0.717-1.894-1.382-2.611-2.099-5.018-4.301-9.523-9.114-13.875-13.926-1.024-1.229-2.458-2.304-3.43-3.584-5.427-6.195-10.445-12.749-14.848-19.712-70.861-109.21-10.394-274.483 134.81-369.101 145.306-94.618 320.512-82.637 391.219 26.573 4.454 6.912 8.55 14.131 11.93 21.555zM658.995 758.067c-45.414 29.542-67.584 76.134-49.408 104.243 18.125 28.006 69.683 26.726 114.995-2.816 45.517-29.542 67.482-76.237 49.408-104.243s-69.53-26.726-114.995 2.816z" />
<glyph unicode="&#xe63d;" d="M272.128 798.669c-82.432 0-149.299-68.762-149.299-153.6 0-84.787 66.867-153.6 149.299-153.6 149.248 0 49.766-296.909-149.299-296.909v-71.68c355.277-0.051 494.49 675.789 149.299 675.789zM702.208 798.669c-82.381 0-149.248-68.762-149.248-153.6 0-84.787 66.867-153.6 149.248-153.6 149.299 0 49.818-296.909-149.248-296.909v-71.68c355.226-0.051 494.438 675.789 149.248 675.789z" />
<glyph unicode="&#xe63e;" d="M369.92 677.53v137.267l-369.92-330.547 369.92-342.579v142.182l-216.32 200.397 216.32 193.28zM625.92 616.806v197.99l-369.92-330.547 369.92-342.579v223.078c168.55 0 270.899-21.606 398.080-246.272 0 0.051-18.842 498.33-398.080 498.33z" />
<glyph unicode="&#xe63f;" d="M972.8 118.528c0 0-113.92 498.278-563.2 498.278v203.981l-358.4-336.538 358.4-342.528v223.078c243.866 0.051 436.019-21.555 563.2-246.272z" />
<glyph unicode="&#xe640;" d="M429.056 686.592c0 104.346-84.582 188.928-188.928 188.928s-188.928-84.582-188.928-188.928c0-104.346 84.582-188.928 188.928-188.928 49.152 0 93.491 19.251 127.13 49.971l93.542-86.374 0.614-0.461-0.205-0.154-94.003-86.682c-33.587 30.72-77.926 49.971-127.078 49.971-104.346 0-188.928-84.582-188.928-188.928s84.582-188.928 188.928-188.928 188.928 84.582 188.928 188.928c0 15.206-2.253 29.798-5.683 43.93l145.613 101.939 211.302-156.928c113.254-79.309 192.512 33.946 192.512 33.946l-549.427 384.768c3.379 14.131 5.683 28.723 5.683 43.93zM240.128 594.432c-50.893 0-92.16 41.267-92.16 92.16s41.267 92.16 92.16 92.16 92.16-41.267 92.16-92.16-41.267-92.16-92.16-92.16zM240.128 142.848c-50.893 0-92.16 41.267-92.16 92.16s41.267 92.16 92.16 92.16 92.16-41.267 92.16-92.16-41.267-92.16-92.16-92.16zM972.8 663.654c0 0-79.258 113.254-192.512 33.946l-164.096-114.432 120.525-84.378 236.083 164.864z" />
<glyph unicode="&#xe641;" d="M768 284.57c-32.41 0-61.645-12.595-83.814-32.87l-304.026 177.306c2.355 9.626 3.84 19.661 3.84 29.901s-1.485 20.224-3.84 29.85l300.8 175.565c22.835-21.35 53.35-34.56 87.040-34.56 70.605 0 128 57.395 128 128s-57.395 128-128 128-128-57.395-128-128c0-10.24 1.485-20.275 3.84-29.85l-300.8-175.565c-22.835 21.299-53.35 34.56-87.040 34.56-70.605 0-128-57.395-128-128s57.395-128 128-128c33.69 0 64.205 13.21 87.040 34.56l304.026-177.306c-2.15-8.96-3.43-18.33-3.43-27.955 0-68.71 55.654-124.365 124.365-124.365s124.365 55.706 124.365 124.365-55.654 124.365-124.365 124.365z" />
<glyph unicode="&#xe642;" d="M313.498 601.6l40.499 268.8h-210.637l-88.013-230.4c-2.714-8.192-4.147-16.691-4.147-25.6 0-56.525 58.88-102.4 131.635-102.4 67.072 0 122.522 39.117 130.662 89.6zM512 512c72.704 0 131.635 45.875 131.635 102.4 0 2.099-0.154 4.198-0.256 6.195l-26.061 249.805h-210.637l-26.112-249.6c-0.102-2.099-0.205-4.198-0.205-6.4 0-56.525 58.931-102.4 131.635-102.4zM768 458.445v-202.445h-512v202.138c-22.426-8.090-47.104-12.698-73.165-12.698-9.984 0-19.661 1.178-29.235 2.509v-325.069c0-39.424 32.205-71.68 71.578-71.68h573.542c39.424 0 71.68 32.307 71.68 71.68v325.018c-9.626-1.28-19.251-2.509-29.235-2.509-25.907 0.051-50.688 4.762-73.165 13.056zM968.704 640l-88.115 230.4h-210.586l40.448-268.39c7.885-50.688 63.334-90.010 130.714-90.010 72.704 0 131.635 45.875 131.635 102.4 0 8.909-1.434 17.408-4.096 25.6z" />
<glyph unicode="&#xe643;" d="M256 890.88c0 28.314-22.938 30.72-51.2 30.72-28.314 0-51.2-2.406-51.2-30.72v-430.080h102.4v430.080zM153.6 30.72c0-28.211 22.886-30.72 51.2-30.72 28.262 0 51.2 2.509 51.2 30.72v174.080h-102.4v-174.080zM327.629 409.6h-245.76c-28.314 0-30.669-22.938-30.669-51.2v-51.2c0-28.314 2.355-51.2 30.669-51.2h245.811c28.16 0 30.72 22.886 30.72 51.2v51.2c0 28.262-2.56 51.2-30.771 51.2zM942.029 358.4h-245.811c-28.262 0-30.618-22.938-30.618-51.2v-51.2c0-28.314 2.355-51.2 30.669-51.2h245.811c28.16 0 30.72 22.886 30.72 51.2v51.2c0 28.262-2.56 51.2-30.771 51.2zM665.6 614.4c0 28.262-2.56 51.2-30.771 51.2h-245.76c-28.314 0-30.669-22.938-30.669-51.2v-51.2c0-28.314 2.355-51.2 30.669-51.2h245.811c28.16 0 30.72 22.886 30.72 51.2v51.2zM563.2 890.88c0 28.314-22.938 30.72-51.2 30.72-28.314 0-51.2-2.406-51.2-30.72v-174.080h102.4v174.080zM460.8 30.72c0-28.211 22.886-30.72 51.2-30.72 28.262 0 51.2 2.509 51.2 30.72v430.080h-102.4v-430.080zM870.4 890.88c0 28.314-22.938 30.72-51.2 30.72-28.314 0-51.2-2.406-51.2-30.72v-481.28h102.4v481.28zM768 30.72c0-28.211 22.886-30.72 51.2-30.72 28.262 0 51.2 2.509 51.2 30.72v122.88h-102.4v-122.88z" />
<glyph unicode="&#xe644;" d="M962.56 562.074h-328.346l-122.214 344.166-122.317-344.166h-328.294l267.878-202.086-95.795-354.765 278.528 212.685 278.426-212.685-95.693 354.765 267.827 202.086zM512 318.31l-154.317-128 63.642 182.374-145.971 117.76 180.326-5.171 56.32 206.848 56.269-206.848 180.275 5.171-145.971-117.76 63.642-182.374-154.214 128z" />
<glyph unicode="&#xe645;" d="M512 906.24l122.266-344.166h328.294l-267.878-202.138 95.795-354.714-278.477 212.685-278.426-212.685 95.744 354.714-267.93 202.138h328.294l122.317 344.166z" />
<glyph unicode="&#xe646;" d="M819.2 921.6h-614.4c-28.314 0-51.2-22.886-51.2-51.2v-819.2c0-28.262 22.886-51.2 51.2-51.2h614.4c28.314 0 51.2 22.938 51.2 51.2v819.2c0 28.262-22.886 51.2-51.2 51.2zM665.6 204.8h-307.2v102.4h307.2v-102.4zM665.6 409.6h-307.2v102.4h307.2v-102.4zM665.6 614.4h-307.2v102.4h307.2v-102.4z" />
<glyph unicode="&#xe647;" d="M819.2 921.6h-614.4c-28.314 0-51.2-22.886-51.2-51.2v-819.2c0-28.262 22.886-51.2 51.2-51.2h614.4c28.314 0 51.2 22.938 51.2 51.2v819.2c0 28.262-22.886 51.2-51.2 51.2zM768 102.4h-512v716.8h512v-716.8zM665.6 716.8h-307.2v-102.4h307.2v102.4zM665.6 307.2h-307.2v-102.4h307.2v102.4zM665.6 512h-307.2v-102.4h307.2v102.4z" />
<glyph unicode="&#xe648;" d="M325.222 325.734c6.81-18.227-181.197-186.061-71.526-322.099 25.651-31.795 112.691 152.32 236.288 235.622 68.147 46.029 226.816 143.923 226.816 198.042v350.31c0 65.075-251.597 133.99-442.778 133.99-70.093 0-171.622-439.091-171.622-508.877 0-69.99 216.115-68.762 222.822-86.989zM768 330.598c33.69 0 153.6 20.48 153.6 159.898v248.218c0 139.315-119.91 154.675-153.6 154.675-33.638 0 51.2-29.286 51.2-115.712v-326.298c0-90.522-84.838-120.781-51.2-120.781z" />
<glyph unicode="&#xe649;" d="M698.778 595.866c-6.81 18.176 181.197 186.061 71.578 322.099-25.651 31.795-112.691-152.32-236.288-235.674-68.198-45.978-226.867-143.872-226.867-197.99v-350.31c0-65.075 251.597-133.99 442.778-133.99 70.093 0 171.622 439.091 171.622 508.826 0 70.042-216.115 68.813-222.822 87.040zM256 591.002c-33.69 0-153.6-20.48-153.6-159.898v-248.218c0-139.315 119.91-154.675 153.6-154.675 33.638 0-51.2 29.286-51.2 115.712v326.298c0 90.522 84.838 120.781 51.2 120.781z" />
<glyph unicode="&#xe64a;" d="M160.512 620.032c47.77 37.12 87.398 11.52 140.288-49.715 5.939-6.912 13.926 1.178 18.483 5.12 4.506 3.994 74.291 66.816 77.722 69.683 3.379 3.021 7.475 8.653 2.099 14.95-5.478 6.298-25.293 32-38.042 48.691-92.57 121.088 253.235 203.213 200.141 204.493-27.034 0.717-135.475 1.997-151.706 0.205-65.69-6.912-148.173-68.301-189.696-96.922-54.323-37.171-74.598-58.982-77.926-62.003-15.36-13.414-2.458-44.39-30.31-68.813-29.44-25.754-47.821-6.246-64.87-21.197-8.448-7.475-32.102-25.19-38.861-31.078-6.81-5.99-8.038-16.077-1.075-24.115 0 0 64.717-71.475 70.144-77.824 5.376-6.246 20.019-11.674 29.030-3.635 9.062 7.987 32.358 28.314 36.25 31.898 3.994 3.379-2.56 44.083 18.33 60.262zM452.762 593.562c-6.144 7.117-13.773 7.322-20.326 1.485l-73.421-64.102c-5.786-5.12-6.605-14.49-1.382-20.48l424.653-483.277c9.933-11.418 27.136-12.595 38.451-2.714l49.664 41.626c11.366 9.984 12.544 27.29 2.662 38.81l-420.301 488.653zM1018.982 799.232c-3.789 25.293-16.896 20.019-23.706 9.318-6.81-10.803-36.915-56.422-49.306-77.107-12.288-20.48-42.598-60.979-99.021-20.992-58.778 41.523-38.349 70.502-28.109 90.010 10.291 19.61 41.882 74.598 46.438 81.408 4.557 6.912-0.768 26.982-18.995 18.586-18.278-8.397-129.178-52.48-144.538-115.712-15.718-64.307 13.158-121.805-43.52-178.893l-68.762-71.68 69.069-80.179 84.685 80.384c20.173 20.275 63.283 39.987 102.298 31.078 83.61-18.893 129.229 12.493 156.723 64.41 24.678 46.387 20.582 144.077 16.742 169.37zM140.237 99.686c-10.65-10.701-10.65-28.109 0-38.81l48.691-47.616c10.65-10.701 27.546-6.195 38.195 4.506l251.238 246.989-76.954 87.757-261.171-252.826z" />
<glyph unicode="&#xe64b;" d="M818.637-6.605c0 114.995-111.974 173.517-221.030 220.518-108.698 46.797-143.411 86.221-143.411 170.701 0 50.637 33.178 34.15 47.718 127.027 6.144 38.502 35.43 0.614 41.062 88.525 0 35.021-16.026 43.725-16.026 43.725s8.141 51.866 11.315 91.802c3.277 41.83-20.378 131.072-117.811 158.464-16.998 17.459-28.518 45.158 23.91 72.909-114.688 5.325-141.363-54.682-202.445-98.816-51.968-38.707-65.997-99.994-63.488-132.608 3.328-39.936 11.418-91.802 11.418-91.802s-16.077-8.704-16.077-43.725c5.632-87.962 35.021-50.022 41.114-88.525 14.541-92.877 47.77-76.39 47.77-127.027 0-84.48-10.854-113.152-119.603-159.949-109.107-46.95-143.053-122.214-142.49-231.219 0.154-32.614-0.563-44.595-0.563-44.595h819.2c0 0-0.563 11.981-0.563 44.595zM948.634 288.512c-58.112 23.398-82.176 51.302-82.176 105.779 0 32.819 21.402 22.118 30.822 82.074 3.942 24.781 22.886 0.41 26.522 57.088 0 22.579-10.342 28.211-10.342 28.211s5.274 33.587 7.322 59.341c2.56 32.102-18.637 115.046-116.122 115.046-97.434 0-118.682-82.944-116.173-115.046 2.15-25.702 7.373-59.341 7.373-59.341s-10.342-5.581-10.342-28.211c3.635-56.678 22.579-32.307 26.522-57.088 9.421-60.006 30.822-49.306 30.822-82.074 0-54.477-22.426-79.974-92.621-110.182-3.533-1.485-6.144-3.482-9.37-5.222 83.968-36.454 216.371-99.379 247.706-227.686h135.424c0 0 0 97.587 0 118.682 0 51.2-13.978 93.901-75.366 118.63z" />
<glyph unicode="&#xe64c;" d="M972.8 819.2h-921.6c-28.314 0-51.2-22.886-51.2-51.2v-614.4c0-28.262 22.886-51.2 51.2-51.2h921.6c28.314 0 51.2 22.938 51.2 51.2v614.4c0 28.262-22.886 51.2-51.2 51.2zM665.6 614.4h204.8v-51.2h-204.8v51.2zM563.2 214.886c-6.605 5.222-15.002 10.291-27.085 15.514-60.416 26.010-151.603 64.512-151.603 111.411 0 28.211 18.381 18.995 26.522 70.605 3.379 21.402 19.712 0.358 22.784 49.203 0 19.456-8.909 24.32-8.909 24.32s4.506 28.774 6.298 50.995c1.843 23.194-11.315 92.16-65.382 107.366-9.523 9.626-15.923 5.683 13.21 21.094-63.693 3.021-78.541-30.31-112.435-54.835-28.877-21.504-36.71-55.552-35.277-73.677 1.894-22.17 6.4-50.995 6.4-50.995s-8.96-4.813-8.96-24.269c3.123-48.845 19.456-27.802 22.784-49.203 8.090-51.61 26.573-42.394 26.573-70.605 0-46.899-91.187-85.402-151.603-111.411-10.394-4.506-17.869-8.858-24.115-13.312v499.712h460.8v-501.914zM921.6 409.6h-256v51.2h256v-51.2z" />
<glyph unicode="&#xe64d;" d="M1024 716.8v61.491c0 22.63-18.278 40.909-40.909 40.909h-942.080c-22.682 0-41.011-18.278-41.011-40.909v-61.491h102.4v-102.4h-102.4v-102.4h102.4v-102.4h-102.4v-102.4h102.4v-102.4h-102.4v-61.389c0-22.63 18.33-41.011 41.011-41.011h942.080c22.63 0 40.909 18.381 40.909 41.011v61.389h-102.4v102.4h102.4v102.4h-102.4v102.4h102.4v102.4h-102.4v102.4h102.4zM409.6 307.2v307.2l256-153.6-256-153.6z" />
<glyph unicode="&#xe64e;" d="M413.286 496.589c0 0 96.87 7.526 96.87 125.901 0 118.528-79.258 176.179-179.712 176.179h-330.445v-661.811h330.445c0 0 201.779-6.605 201.779 195.379-0.051 0.051 8.755 164.352-118.938 164.352zM145.613 681.114h184.832c0 0 44.954 0 44.954-68.813 0-68.915-26.419-78.899-56.422-78.899h-173.363v147.712zM321.075 254.515h-175.462v176.896h184.832c0 0 66.97 0.922 66.97-90.88 0-77.414-50.022-85.453-76.339-86.016zM801.229 630.374c-244.275 0-244.070-254.31-244.070-254.31s-16.691-252.979 244.070-252.979c0 0 217.242-13.005 217.242 175.974h-111.718c0 0 3.686-71.219-101.786-71.219 0 0-111.821-7.782-111.821 115.2h328.858c0.051 0.051 36.301 287.334-220.774 287.334zM900.608 431.411h-208.589c0 0 13.619 101.99 111.718 101.99s96.87-101.99 96.87-101.99zM926.566 759.808h-261.99v-81.613h261.99v81.613z" />
<glyph unicode="&#xe64f;" d="M645.12 819.2c-100.659 0-191.488-41.626-256.614-108.493-19.661 3.994-39.987 6.093-60.826 6.093-169.677 0-307.2-137.523-307.2-307.2s137.523-307.2 307.2-307.2h317.44c197.939 0 358.4 160.461 358.4 358.4s-160.461 358.4-358.4 358.4zM327.68 167.526c-64.666 0-125.44 25.19-171.213 70.912-45.67 45.722-70.861 106.547-70.861 171.162s25.19 125.44 70.912 171.162c45.722 45.722 106.496 70.912 171.162 70.912s125.44-25.19 171.213-70.912l95.949-96c13.978-13.978 13.978-36.659 0-50.688-14.029-14.029-36.762-13.978-50.688 0l-95.949 96.051c-64.41 64.307-176.589 64.307-240.998 0-32.205-32.256-49.92-75.008-49.92-120.525s17.715-88.269 49.92-120.525c40.192-40.141 98.97-55.194 153.139-45.261 16.589-21.709 35.277-41.728 56.32-59.136-28.006-11.059-58.010-17.152-88.986-17.152zM854.477 251.443c-55.962-55.91-130.304-86.733-209.357-86.733-79.104 0-153.446 30.822-209.408 86.733l-138.701 138.701c-13.978 13.978-13.978 36.71 0 50.688s36.71 13.978 50.688 0l138.701-138.701c42.394-42.394 98.765-65.741 158.72-65.741s116.275 23.347 158.669 65.741 65.741 98.765 65.741 158.669-23.347 116.275-65.741 158.669-98.714 65.741-158.669 65.741c-44.698 0-87.398-13.056-123.802-37.222-19.507 15.821-41.062 29.133-64.051 39.885 52.992 43.93 118.221 69.069 187.904 69.069 79.053 0 153.395-30.822 209.357-86.733 55.962-55.962 86.733-130.304 86.733-209.357s-30.822-153.498-86.784-209.408z" />
<glyph unicode="&#xe650;" d="M312.781 926.618l-292.301-182.016 200.243-167.885 291.277 189.082-199.219 160.819zM688.742 154.010c-5.222 0-10.394 1.69-14.592 5.222l-162.15 134.554-162.15-134.605c-4.198-3.482-9.421-5.222-14.592-5.222-4.352 0-8.704 1.178-12.493 3.686l-120.115 78.49v-46.285l309.35-194.867 309.35 194.918v46.285l-120.115-78.49c-3.789-2.509-8.141-3.686-12.493-3.686zM1003.52 744.602l-292.352 182.016-199.168-160.819 291.226-189.082 200.294 167.885zM512 394.701l180.634-149.914 288.819 188.826-178.227 143.104-291.226-182.016zM331.366 244.787l180.634 149.914-291.277 182.016-178.176-143.104 288.819-188.826z" />
<glyph unicode="&#xe651;" d="M887.757 752.282c0 58.88-88.678 65.382-88.678 65.382l-208.333 13.107c0 0-4.454 56.678-46.541 76.39-42.086 19.61-88.371 13.619-121.651 13.312-33.28-0.358-41.114-42.752-41.114-82.79 0-39.987 0.717-86.221 0.717-115.2 0-52.122-22.886-74.189-80.179-74.189h-118.118c-33.024 2.099-58.726-3.277-58.726-30.003 0-26.778 38.861-254.618 92.211-307.2 30.976-30.515 220.416-51.917 260.301-51.917s26.573 117.811 37.683 117.811c11.11 0 23.245-66.509 86.118-82.074 62.771-15.718 146.637-12.8 151.091-57.498 5.786-58.982 11.11-135.27-27.699-140.698l-87.859-3.482c-60.211 4.301-44.032 70.093-17.459 70.093s39.885 0.973 39.885 0.973l3.328 71.987c0 0-137.882 16.282-143.718-76.698-5.376-84.992 9.216-125.082 19.917-133.786 10.701-8.806 29.235-25.805 198.093-25.805 237.926 0 150.733 693.402 150.733 752.282zM790.528 444.416c-9.318-10.035-43.11 16.384-75.366 16.384-32.307 0-67.123-17.101-75.315-5.786-8.192 11.213 7.475 101.888 68.301 101.888s91.802-102.605 82.381-112.486zM297.165 759.501c0 11.725 2.97 152.781 2.97 152.781l-179.456-176.128c0 0 124.006 0 148.378 0 24.371 0.051 28.109 11.725 28.109 23.347z" />
<glyph unicode="&#xe652;" d="M286.618 535.501c0 83.814 22.221 137.114 96.717 149.094 26.010 5.12 80.179 3.277 114.637 3.277v-128c0-1.229 0.154-3.277 0.461-4.301 1.382-5.171 6.093-8.96 11.674-8.96 3.123 0 6.042 1.587 9.114 4.608l319.283 319.181h-452.045c-188.109 0-284.058-108.288-284.058-310.579v-424.294l184.218 184.422v215.552zM737.28 601.702v-215.501c0-83.814-22.221-137.216-96.717-149.094-26.010-5.12-80.179-3.328-114.586-3.328v128c0 1.126-0.205 3.174-0.461 4.301-1.434 5.12-6.144 8.909-11.674 9.011-3.174 0-6.042-1.69-9.165-4.71l-319.232-319.078 452.096-0.102c188.058 0 284.058 108.288 284.058 310.579v424.294l-184.32-184.371z" />
<glyph unicode="&#xe653;" d="M251.904 921.6c-26.010 0-47.104-21.094-47.104-47.104v-845.619c0-32 39.168-47.411 61.030-24.064l228.915 245.248c3.482 3.789 8.346 5.939 13.517 5.939h165.734c24.883 0 46.336 17.562 51.251 41.984l108.083 538.317c8.858 44.134-24.883 85.299-69.888 85.299h-511.539zM452.506 348.672l-145.306-170.854v623.821c0 9.677 7.885 17.562 17.562 17.562h365.568c17.51 0 30.618-16.026 27.136-33.178l-21.146-105.216c-1.741-8.858-9.523-15.206-18.534-15.206h-189.952c-14.95 0-27.034-12.083-27.034-27.034v-62.464c0-7.117 5.786-12.902 12.954-12.902h168.653c15.667 0 27.443-14.336 24.371-29.747l-31.437-156.57c-2.202-10.752-11.674-18.483-22.63-18.483h-139.11c-8.141 0-15.821-3.533-21.094-9.728z" />
<glyph unicode="&#xe654;" d="M418.56 307.2l-170.189-307.2h605.389l170.24 307.2h-605.44zM300.288 855.091l-300.288-543.488 172.646-311.501 300.339 543.488-172.698 311.501zM995.584 358.4l-312.115 563.2h-345.344l311.706-563.2h345.754z" />
<glyph unicode="&#xe655;" d="M512 972.8c-243.2 0-440.32-194.867-440.32-435.2s197.12-435.2 440.32-435.2v-153.6c172.442 85.606 440.32 271.616 440.32 588.8 0 240.333-197.12 435.2-440.32 435.2zM460.8 474.061c0-67.994-52.275-124.006-118.784-129.946-6.298-0.563-11.674 4.506-11.674 10.803v43.622c0 5.427 4.045 9.933 9.421 10.752 27.187 3.891 47.974 24.934 53.606 51.507h-99.891c-20.685 0-37.478 16.794-37.478 37.478v129.843c0 20.685 16.794 37.478 37.478 37.478h129.843c20.685 0 37.478-16.794 37.478-37.478v-154.061zM768 474.061c0-67.994-52.275-124.006-118.784-129.946-6.298-0.563-11.674 4.506-11.674 10.803v43.622c0 5.427 4.045 9.933 9.421 10.752 27.187 3.942 47.974 24.934 53.606 51.507h-99.891c-20.685 0-37.478 16.794-37.478 37.478v129.843c0 20.685 16.794 37.478 37.478 37.478h129.843c20.685 0 37.478-16.794 37.478-37.478v-154.061z" />
<glyph unicode="&#xe656;" d="M512 911.411c-248.883 0-450.56-201.728-450.56-450.611 0-248.781 201.677-450.611 450.611-450.611 248.832 0 450.56 201.779 450.56 450.611-0.051 248.883-201.728 450.611-450.611 450.611zM693.146 443.494c-24.371 34.099-49.306 67.584-76.646 99.277-25.651 29.901-52.941 58.419-82.637 84.224-29.594 25.805-61.85 50.278-97.28 67.379-23.808 11.52-48.333 20.122-73.677 27.443-2.867 0.768-10.65 4.301-12.902 0.768-1.434-2.202-0.307-6.298-0.102-8.704 0.717-5.274 1.331-10.496 1.997-15.77 7.578-62.874 10.445-129.28-9.114-190.413-10.445-32.922-29.594-62.976-55.040-86.323-21.146-19.405-51.302-38.912-81.254-37.478-5.53 0.205-11.162 1.178-16.589 3.021-32.051 10.803-33.946 45.363-34.15 73.882-0.205 30.618 3.482 61.184 11.059 90.88 2.304 9.114 5.171 18.074 8.192 26.982 35.072 101.683 116.224 184.422 218.061 220.518 38.093 13.517 78.438 20.326 118.938 20.326 119.091 0 232.397-61.184 297.83-160.614 16.384-24.986 29.542-52.019 39.219-80.179h-0.154c3.123-8.909 5.99-17.92 8.346-26.982 7.475-29.696 11.264-60.314 11.059-90.88-0.41-57.6-18.944-121.19-91.29-90.675-34.15 14.438-62.669 43.622-83.866 73.318z" />
<glyph unicode="&#xe657;" d="M558.541 716.8c96.461 0 174.95-81.818 174.95-182.323 0-6.963-0.614-14.848-1.894-24.781 0 0-8.346-64.614-10.547-81.613s9.523-33.28 27.034-33.434c17.51-0.102 84.48-0.512 84.48-0.512 49.050-0.307 89.037-42.752 89.037-94.618 0-52.224-40.192-94.72-89.6-94.72h-618.65c-61.184 0-110.95 52.326-110.95 116.634 0 46.746 26.573 88.832 67.738 107.264 0 0 21.555 9.626 33.331 14.899s26.010 22.067 26.419 39.68c0.41 17.613 0.819 36.557 0.819 36.557 0.614 27.392 21.555 49.664 46.592 49.664 1.638 0 4.813-0.307 10.598-1.792 0 0 39.629-10.086 53.197-13.517s31.027 3.379 37.376 15.821c6.349 12.442 25.754 50.227 25.754 50.227 30.618 59.546 89.754 96.563 154.317 96.563zM558.541 819.2c-106.547 0-198.963-61.798-245.402-152.269-11.52 2.918-23.398 4.915-35.789 4.915-81.254 0-147.098-66.765-148.992-149.709-75.469-33.741-128.358-110.797-128.358-200.704 0-120.986 95.488-219.034 213.35-219.034h618.65c106.035 0 192 88.269 192 197.12 0 108.442-85.35 196.352-190.874 197.018 1.587 12.442 2.714 25.037 2.714 37.939 0.051 157.235-124.109 284.723-277.299 284.723v0z" />
<glyph unicode="&#xe658;" d="M488.755 89.19h48.896v-109.722c333.312 35.021 511.078 365.722 482.355 598.579-28.877 232.96-279.091 393.83-560.333 359.424-281.19-34.509-484.762-251.29-455.987-484.301 26.266-211.866 235.622-364.186 485.069-363.981zM803.533 314.368h-93.747v253.594c0 10.189-0.922 19.814-2.714 28.518-1.485 7.578-4.301 13.978-8.397 19.507-3.891 5.12-9.574 9.318-16.896 12.493-7.782 3.379-18.586 5.12-31.898 5.12-27.494 0-48.998-7.219-64.051-21.299-14.899-13.978-22.17-32.41-22.17-56.32v-241.613h-93.696v253.594c0 10.496-0.973 20.224-3.021 28.877-1.741 7.68-4.659 14.182-8.858 19.814-3.942 5.222-9.165 9.114-16.077 12.134-7.373 3.174-17.408 4.813-29.696 4.813-15.974 0-29.696-3.021-40.704-8.909-11.418-5.99-20.736-13.312-27.699-21.606-7.066-8.397-12.237-17.101-15.309-25.907-3.174-8.806-4.71-15.872-4.71-21.197v-241.613h-93.798v394.035h90.010v-30.72c29.389 26.010 66.867 39.219 111.667 39.219 26.112 0 50.227-5.274 71.629-15.616 15.667-7.526 28.365-18.688 37.786-33.382 11.827 12.698 25.805 23.091 41.677 31.181 23.245 11.827 49.050 17.818 76.749 17.818 20.582 0 39.578-2.202 56.422-6.502 17.562-4.403 32.973-11.52 45.824-21.094 13.21-9.882 23.552-22.784 30.822-38.4 7.219-15.411 10.854-33.792 10.854-54.784v-281.754z" />
<glyph unicode="&#xe659;" d="M329.165 468.634c24.934 100.403 115.149 173.773 222.259 173.773 63.283 0 122.573-25.856 165.478-70.758 18.125 5.837 39.322 10.342 58.163 10.752v6.656c0 127.078-94.464 230.144-210.944 230.144-83.251 0-154.624-53.146-188.928-129.587-25.293 17.101-54.835 27.392-86.733 27.392-91.392 0-165.427-80.742-165.427-180.378 0-10.752 1.229-21.197 2.918-31.386-70.502-6.963-125.696-79.053-125.696-157.696 0-0.819 0.205-1.485 0.205-2.304-0.051-0.717-0.461-1.434-0.461-2.15 0-31.488 10.957-60.262 28.723-83.507 25.19-33.894 64.614-54.784 109.568-54.784h64.563c-12.595 24.986-20.378 52.838-20.378 82.688-0.051 88.934 62.976 163.43 146.688 181.146zM915.917 369.818c-1.28 0-2.56-0.358-3.84-0.41 0.358 3.789 1.126 7.475 1.126 11.366 0 75.366-61.082 136.397-136.448 136.397-30.003 0-57.498-9.933-80.077-26.419-27.955 51.968-82.125 87.654-145.306 87.654-91.546 0-165.734-74.189-165.734-165.734 0-1.178 0.307-2.202 0.358-3.379-6.042 0.922-12.083 1.843-18.381 1.843-68.352 0-123.648-55.347-123.648-123.648 0-8.55 0.87-16.896 2.509-24.934 11.674-62.003 65.946-108.954 131.379-108.954h548.147v0.973c54.886 5.222 97.997 50.893 97.997 107.11 0 59.699-48.384 108.134-108.083 108.134z" />
<glyph unicode="&#xe65a;" d="M405.197 426.138h84.941c184.525 0 289.229 83.098 322.56 253.952 1.075 5.632 2.048 11.059 2.867 16.486 1.843 11.571 2.765 21.965 3.174 31.949 0.307 6.861 0.512 10.906 0.461 14.694-0.41 20.019-3.942 36.966-11.059 53.197-6.605 15.155-16.589 30.054-31.386 47.002-43.674 49.664-119.757 78.182-210.637 78.182h-289.434c-20.378 0-37.734-14.848-40.909-34.97l-52.224-336.435-64.973-419.072c-2.355-15.104 9.318-28.723 24.576-28.723h141.926l43.469 258.202c5.99 37.888 38.246 65.536 76.646 65.536zM871.27 660.992c-40.55-193.075-171.878-295.526-381.184-295.526h-84.89c-8.397 0-15.462-6.042-16.794-14.438l-56.576-351.027h148.838c17.818 0 33.024 12.954 35.789 30.566l1.485 7.68 28.416 179.917 1.843 9.933c2.765 17.613 17.971 30.566 35.789 30.566h22.528c145.92 0 260.147 59.29 293.53 230.707 13.722 70.656 6.758 129.741-28.774 171.622z" />
<glyph unicode="&#xe65b;" d="M297.37 879.462c-158.157-81.306-256.41-241.715-256.41-419.738 0-32.41 4.096-65.28 11.315-98.202l406.989 370.637c-43.418 39.475-157.491 143.309-161.894 147.302zM706.202 889.549c-61.44 27.904-126.771 42.291-194.253 42.291-47.821 0-94.976-7.987-140.749-22.579l335.002-304.691v284.979zM777.83 847.974v-543.59h178.432c17.562 50.278 26.726 102.605 26.726 155.392 0.051 155.29-77.926 300.646-205.158 388.198zM74.906 285.235c34.509-86.682 95.078-161.28 172.442-214.221v371.2l-104.704-95.283c-35.738-32.461-65.536-59.699-67.738-61.696zM318.976 29.44c47.872-21.606 97.946-34.918 149.504-39.68h86.477c154.573 14.387 293.222 105.882 368.589 242.893h-604.57v-203.213z" />
<glyph unicode="&#xe65c;" d="M870.656 306.278c-39.885 28.006-89.651 26.112-117.965-14.182-28.314-40.192-226.202-288.41-550.451-185.293 12.237-10.701 25.088-20.787 38.656-30.31 212.634-149.811 506.47-98.714 656.179 113.92 28.416 40.294 13.466 87.757-26.419 115.866zM244.992 337.869c-20.685 44.595-136.653 340.122 114.688 569.395-15.36-5.325-30.566-11.315-45.568-18.278-235.981-109.312-338.739-389.274-229.427-625.306 20.634-44.595 69.274-55.501 113.562-35.021 44.237 20.531 67.379 64.614 46.746 109.21zM554.291 930.662c-48.947 4.403-82.637-32.205-87.040-80.794-4.352-48.589 22.272-90.675 71.219-95.078s362.854-51.712 435.712-384.102c3.174 15.923 5.427 32.102 6.963 48.589 23.296 259.123-167.782 488.090-426.854 511.386zM352.819 433.664c-13.517-31.693-15.667-62.106-4.813-67.686 7.475-3.891 19.149 5.018 30.106 21.299 4.352-17.766 15.104-33.894 30.464-46.797-16.077-5.888-26.624-15.616-26.624-26.573 0-18.125 28.467-32.717 63.539-32.717 31.642 0 57.856 11.878 62.72 27.494 1.28 0 6.298 0 7.526 0 4.864-15.616 31.078-27.494 62.771-27.494 35.123 0 63.539 14.592 63.539 32.717 0 11.008-10.496 20.685-26.624 26.573 15.309 12.902 26.112 28.979 30.413 46.797 10.957-16.282 22.63-25.19 30.157-21.299 10.803 5.581 8.704 35.994-4.864 67.686-10.598 24.986-24.986 43.418-35.942 47.411 0.205 1.587 0.205 3.226 0.205 4.813 0 9.728-2.662 18.586-7.27 25.805 0.102 0.614 0.102 1.178 0.102 1.69 0 4.506-1.075 8.602-2.867 12.186-2.765 64.922-45.005 116.429-113.357 116.429-68.403 0-110.643-51.507-113.408-116.378-1.792-3.584-2.918-7.68-2.918-12.186 0-0.512 0.051-1.075 0.102-1.69-4.506-7.27-7.219-16.179-7.219-25.856 0-1.587 0.051-3.174 0.205-4.813-10.906-3.994-25.344-22.374-35.942-47.411z" />
<glyph unicode="&#xe65d;" d="M512 952.32c-271.462 0-491.52-220.058-491.52-491.52s220.058-491.52 491.52-491.52 491.52 220.058 491.52 491.52-220.058 491.52-491.52 491.52zM686.234 487.322c1.126-8.704 1.741-17.51 1.741-26.522 0-111.411-89.19-201.779-199.27-201.779-109.978 0-199.219 90.419-199.219 201.779 0 111.514 89.19 201.83 199.219 201.83 15.821 0 31.13-1.997 45.875-5.478v-114.944c-23.245 8.499-51.968 7.27-78.899-5.683-48.742-23.603-73.472-76.493-55.245-118.323 18.278-41.779 72.602-56.627 121.395-33.024 33.587 16.179 63.181 55.194 63.181 104.192v148.122c4.198-2.304 8.294-4.915 12.288-7.475 37.837-23.808 94.106-55.603 159.795-58.982 25.651-1.331-10.086-65.741-70.861-83.712z" />
<glyph unicode="&#xe65e;" d="M433.562 928.512c-222.771-37.325-392.602-231.014-392.602-464.435 0-116.019 41.984-222.106 111.565-304.179 164.915 79.821 280.166 260.403 281.037 470.579v298.035zM512.102 345.19c-29.338-121.498-116.992-225.28-226.202-294.298 67.072-36.813 144.179-57.805 226.099-57.805 82.022 0 159.13 20.992 226.202 57.805-109.21 69.018-196.813 172.8-226.099 294.298zM590.592 632.678c0-211.098 115.507-392.602 280.934-472.781 69.53 82.074 111.514 188.211 111.514 304.179 0 233.421-169.728 427.008-392.448 464.384v-295.782z" />
<glyph unicode="&#xe65f;" d="M237.722 36.659c0-11.469-3.686-25.19-7.578-36.659h293.734c16.794 19.302 26.266 42.547 26.266 68.71 0 70.912-84.173 110.285-268.339 196.71l-25.907 12.083c-90.778 43.162-158.003 81.152-204.698 126.413v-225.178c9.011 1.229 18.381 2.15 28.57 2.15 153.651-0.051 157.952-142.797 157.952-144.23zM870.4 921.6h-191.386c89.498-60.314 126.31-145.51 126.31-212.070 0-112.333-94.003-148.736-139.622-148.736l-13.875-0.102c-104.755 0-158.208 63.846-158.925 189.798-6.195 4.915-35.226 23.194-120.166 23.194-100.352 0-141.978-79.002-141.978-121.293 0-49.818 27.802-105.216 229.581-173.158 344.883-115.405 344.883-269.056 344.883-404.634v-1.331c0-22.374-1.587-47.309-5.99-73.267h71.168c56.32 0 102.4 46.029 102.4 102.4v716.8c0 56.32-46.080 102.4-102.4 102.4z" />
<glyph unicode="&#xe660;" d="M752.026 457.318c-14.029 4.301-23.706 7.27-16.333 26.010 15.923 40.806 17.613 75.981 0.358 101.12-32.41 47.104-121.037 44.595-222.618 1.28 0 0.102-31.898-14.182-23.757 11.622 15.667 51.046 13.261 93.85-11.059 118.528-55.091 56.218-201.574-2.099-327.27-129.997-94.157-95.795-148.787-197.274-148.787-285.082 0-167.987 211.558-280.32 418.56-280.32 271.309 0 451.84 170.701 451.84 298.086 0 77.056-63.693 120.73-120.934 138.752zM421.683 95.795c-165.12-16.384-307.763 58.726-318.464 167.68-10.701 109.005 114.483 210.688 279.654 227.226 165.171 16.384 307.763-58.675 318.464-167.68 10.701-109.107-114.483-210.842-279.654-227.226zM1021.44 594.074c-0.051 169.574-137.523 306.995-307.2 306.995-19.814 0-35.789-15.974-35.789-35.789s15.974-35.789 35.789-35.789c130.099 0 235.571-105.523 235.571-235.622 0-19.814 16.026-35.789 35.84-35.789s35.789 16.026 35.789 35.84v0.154zM879.053 599.296c-16.333 79.974-79.411 143.002-159.386 159.386-19.354 3.994-38.298-8.499-42.291-27.904-3.942-19.302 8.499-38.298 27.904-42.291 52.019-10.598 92.979-51.61 103.629-103.578 3.994-19.405 22.938-31.795 42.291-27.904 19.302 3.994 31.846 22.989 27.853 42.291zM336.998 383.898c-66.56-13.414-111.462-69.222-100.301-124.621 11.162-55.501 74.086-89.6 140.646-76.186 66.509 13.414 111.411 69.222 100.301 124.621-11.162 55.398-74.189 89.6-140.646 76.186z" />
<glyph unicode="&#xe661;" d="M622.797 468.378c-11.776 7.885-26.317 14.694-43.059 20.224-16.538 5.478-35.226 10.496-55.654 15.002-16.077 3.789-27.802 6.81-34.765 8.806-6.81 1.894-13.619 4.608-20.275 8.090-6.349 3.277-11.418 7.219-15.002 11.725-3.328 4.198-5.018 9.216-5.018 15.104 0 9.626 5.12 17.715 15.616 24.781 10.854 7.322 25.549 11.008 43.571 11.008 19.456 0 33.587-3.277 42.035-9.882 8.704-6.81 16.282-16.486 22.528-28.774 5.427-9.626 10.291-16.282 15.053-20.48 5.069-4.608 12.339-7.014 21.658-7.014 10.291 0 18.944 3.686 25.856 11.11 6.861 7.322 10.342 15.718 10.342 24.986 0 9.626-2.714 19.61-7.885 29.491s-13.414 19.405-24.422 28.314c-11.008 8.909-24.934 15.974-41.523 21.299-16.486 5.325-36.301 7.987-58.726 7.987-28.16 0-52.992-3.994-73.882-11.981-21.146-8.090-37.581-19.866-48.845-34.97-11.366-15.206-17.101-32.819-17.101-52.378 0-20.48 5.478-37.888 16.282-51.814 10.598-13.722 25.19-24.678 43.213-32.614 17.715-7.68 39.834-14.49 65.997-20.275 19.149-4.096 34.714-8.090 46.131-11.776 10.957-3.482 20.019-8.602 26.88-15.206 6.502-6.298 9.677-14.285 9.677-24.627 0-12.902-6.093-23.398-18.586-32.307-12.851-9.011-29.901-13.517-50.688-13.517-15.155 0-27.392 2.202-36.557 6.707-9.062 4.403-16.128 9.984-21.094 16.691-5.171 7.014-9.984 15.923-14.438 26.419-3.994 9.677-9.011 17.101-14.797 22.221-5.99 5.325-13.517 7.885-22.118 7.885-10.598 0-19.405-3.379-26.317-9.984-6.963-6.81-10.496-15.002-10.496-24.525 0-15.104 5.427-30.925 16.128-46.694 10.598-15.821 24.525-28.518 41.472-37.888 23.654-12.902 53.965-19.405 90.112-19.405 30.106 0 56.525 4.813 78.643 14.182 22.272 9.523 39.475 22.989 51.098 39.885 11.674 16.998 17.613 36.506 17.613 57.805 0 17.818-3.43 33.178-10.24 45.619-6.81 12.39-16.384 22.682-28.416 30.771zM512 952.32c-271.462 0-491.52-220.058-491.52-491.52s220.058-491.52 491.52-491.52 491.52 220.058 491.52 491.52-220.058 491.52-491.52 491.52zM629.811 185.6c-24.934 0-48.435 6.4-69.018 17.818-14.899-2.918-30.31-4.403-46.080-4.403-138.906 0-251.597 116.019-251.597 258.918 0 17.92 1.792 35.328 5.12 52.122-12.749 22.221-20.070 48.128-20.070 75.827 0 82.893 65.331 150.221 145.971 150.221 28.518 0 55.091-8.499 77.619-23.091 13.926 2.509 28.365 3.789 42.957 3.789 139.008 0 251.648-115.917 251.648-258.918 0-18.995-1.997-37.581-5.786-55.501 9.677-20.122 15.155-42.701 15.155-66.714-0.051-82.842-65.331-150.067-145.92-150.067z" />
<glyph unicode="&#xe662;" d="M955.955 356.506c6.758 31.898 10.394 65.126 10.394 99.226 0 255.283-201.216 462.285-449.382 462.285-26.163 0-51.814-2.406-76.8-6.81-40.192 26.010-87.654 41.114-138.598 41.114-143.923 0-260.608-120.013-260.608-268.134 0-49.408 13.107-95.795 35.789-135.578-5.939-30.003-9.114-61.133-9.114-92.928 0-255.283 201.216-462.285 449.28-462.285 28.211 0 55.654 2.611 82.278 7.68 36.71-20.275 78.592-31.795 123.187-31.795 143.923 0 260.608 120.013 260.608 268.083 0.051 42.854-9.728 83.251-27.034 119.142zM747.469 234.701c-20.787-30.208-51.507-54.221-91.29-71.219-39.373-16.896-86.63-25.395-140.39-25.395-64.512 0-118.63 11.622-160.922 34.714-30.208 16.794-55.091 39.475-73.984 67.482-19.046 28.416-28.723 56.525-28.723 83.61 0 16.896 6.298 31.59 18.688 43.622 12.288 11.878 28.109 18.022 46.899 18.022 15.411 0 28.774-4.813 39.578-14.182 10.342-9.011 19.2-22.426 26.317-39.578 7.987-18.79 16.691-34.611 25.856-47.104 8.806-11.981 21.504-22.118 37.632-30.003 16.282-7.885 38.298-11.878 65.28-11.878 37.12 0 67.584 8.090 90.522 24.218 22.426 15.821 33.28 34.611 33.28 57.702 0 18.278-5.683 32.614-17.408 43.878-12.186 11.674-28.416 20.89-47.923 27.187-20.429 6.502-48.179 13.619-82.483 20.992-46.592 10.291-86.17 22.477-117.709 36.198-32.256 14.080-58.214 33.69-77.21 58.214-19.2 24.73-29.030 55.91-29.030 92.518 0 34.918 10.24 66.406 30.515 93.594 20.122 26.88 49.408 47.872 87.194 62.31 37.274 14.182 81.715 21.402 131.891 21.402 40.090 0 75.418-4.813 104.806-14.182 29.594-9.523 54.579-22.323 74.189-38.093 19.814-15.923 34.509-32.922 43.725-50.483 9.318-17.92 14.080-35.584 14.080-52.787 0-16.486-6.195-31.488-18.483-44.595-12.288-13.21-27.802-19.814-46.080-19.814-16.589 0-29.696 4.198-38.707 12.39-8.397 7.578-17.203 19.61-26.829 36.71-11.213 21.914-24.781 39.219-40.346 51.302-15.104 11.878-40.346 17.92-75.059 17.92-32.205 0-58.419-6.707-77.773-19.814-18.842-12.749-27.904-27.238-27.904-44.339 0-10.598 2.97-19.405 9.011-26.88 6.4-8.090 15.411-15.104 26.778-20.992 11.776-6.144 23.91-10.957 36.096-14.438 12.493-3.584 33.485-8.806 62.208-15.718 36.403-7.987 69.786-16.998 99.277-26.675 29.952-9.882 55.808-22.016 76.902-36.096 21.504-14.49 38.605-33.024 50.637-55.091 12.134-22.221 18.278-49.613 18.278-81.408 0.051-38.144-10.547-72.806-31.386-103.219z" />
<glyph unicode="&#xe663;" d="M665.6 610.304c70.707 0 128 57.293 128 128s-57.293 128-128 128-128-57.293-128-128 57.344-128 128-128zM964.864 668.518c-183.296-130.816-267.725-107.93-350.464-105.318-57.242 2.918-76.8-15.258-76.8-55.296l0.051-307.2c0-256 431.155-175.616 264.448 253.389 85.555 49.101 157.491 124.621 198.451 174.694 21.043 31.13-1.434 63.744-35.686 39.731zM358.4 866.304c-70.707 0-128-57.293-128-128s57.293-128 128-128 128 57.293 128 128-57.344 128-128 128zM409.6 563.2c-82.739-2.611-167.168-25.498-350.464 105.318-34.253 24.013-56.73-8.602-35.686-39.68 40.96-50.125 112.896-125.594 198.451-174.694-166.707-429.005 264.448-509.389 264.448-253.389l0.051 307.2c0 39.987-19.558 58.163-76.8 55.245z" />
<glyph unicode="&#xe664;" d="M513.178 151.962c-128.41 0-217.754 79.616-217.754 79.616l-75.93-172.186c52.378-28.006 107.11-47.923 138.701-58.419l-81.51-19.507c-38.195-9.114-76.595 14.49-85.76 52.685l-158.208 661.914c-9.165 38.195 14.387 76.595 52.634 85.811l190.259 45.517c-46.592-52.685-64.666-115.302-60.109-186.88 7.117-112.282 114.534-198.605 242.381-246.886 240.691-90.931 183.603-241.664 55.296-241.664zM991.283 225.587l-158.259 661.914c-9.114 38.195-47.514 61.798-85.76 52.582l-136.346-32.614c34.765-5.376 103.629-20.48 179.456-60.314l-59.341-164.506c0 0-49.408 55.194-181.914 61.901-125.952 6.4-195.994-129.894 49.613-210.176 188.109-61.491 248.218-180.019 245.094-289.69-1.587-56.986-21.555-103.322-44.646-138.291l139.52 33.382c38.195 9.114 61.747 47.514 52.582 85.811z" />
<glyph unicode="&#xe665;" d="M34.406 304.384l16.794 71.731-16.794 74.086c-0.461 2.202-4.71 3.891-9.779 3.891-5.222 0-9.421-1.69-9.779-3.891l-14.848-74.086 14.797-71.68c0.41-2.304 4.608-3.891 9.779-3.891 5.12-0.051 9.37 1.536 9.83 3.84zM139.418 264.602l14.182 110.797-14.182 171.418c-0.461 4.301-5.837 7.782-12.237 7.782-6.502 0-11.93-3.482-12.186-7.782l-12.595-171.418 12.595-110.797c0.307-4.403 5.683-7.782 12.186-7.782 6.4 0 11.776 3.379 12.237 7.782zM244.122 266.394l11.878 108.902-11.878 228.198c-0.307 5.427-6.605 9.626-14.438 9.626-7.782 0-14.080-4.198-14.387-9.626l-10.496-228.198 10.496-109.005c0.307-5.274 6.605-9.523 14.387-9.523 7.834 0.051 14.131 4.25 14.438 9.626zM348.672 267.981l9.728 107.315-9.728 229.888c-0.256 6.298-7.475 11.315-16.384 11.315-9.011 0-16.179-5.018-16.435-11.315l-8.653-229.888 8.704-107.315c0.205-6.298 7.424-11.315 16.384-11.315 8.909 0.051 16.128 4.915 16.384 11.315zM453.12 269.414l7.68 105.779-7.68 263.629c-0.205 7.27-8.397 13.056-18.33 13.056s-18.125-5.888-18.278-13.107l-6.912-263.475 6.912-105.882c0.154-7.219 8.346-13.107 18.278-13.107s18.125 5.786 18.33 13.107zM526.182 256.205c0.41 0 363.52-0.205 365.824-0.205 72.909 0 131.994 57.19 131.994 127.693s-59.085 127.59-131.994 127.59c-18.074 0-35.277-3.584-50.995-9.882-10.496 114.995-110.234 205.21-231.885 205.21-29.747 0-58.778-5.683-84.378-15.206-10.035-3.789-12.646-7.578-12.749-15.104v-404.992c0.102-7.834 6.349-14.285 14.182-15.104z" />
<glyph unicode="&#xe666;" d="M512 952.32c-271.462 0-491.52-220.058-491.52-491.52s220.058-491.52 491.52-491.52 491.52 220.058 491.52 491.52-220.058 491.52-491.52 491.52zM663.757 264.346c-7.578 0-12.8 2.867-18.381 6.246-51.866 31.386-116.122 47.872-185.754 47.872-35.533 0-73.882-4.198-113.971-12.39l-4.864-1.229c-5.12-1.229-10.291-2.56-14.285-2.56-16.128 0-28.774 12.544-28.774 28.621 0 16.282 9.216 27.802 24.525 30.72 47.821 10.906 92.877 16.179 137.574 16.179 80.896 0 153.293-18.688 215.091-55.808 10.65-6.195 17.306-13.312 17.306-29.133-0.051-15.77-12.749-28.518-28.467-28.518zM703.59 376.115c-9.062 0-14.95 3.43-20.224 6.502-93.44 55.501-232.806 73.882-347.392 43.366-1.894-0.563-3.584-1.075-5.222-1.587-4.301-1.382-8.397-2.714-14.029-2.714-18.842 0-34.15 15.411-34.15 34.406 0 18.278 9.523 31.078 26.829 35.942 44.134 12.083 85.709 20.122 145.408 20.122 96.563 0 190.157-24.218 263.475-68.096 13.363-7.578 19.405-18.074 19.405-33.69 0-18.944-15.309-34.253-34.099-34.253zM748.8 503.501c-8.499 0-13.773 1.997-21.555 6.298-63.437 38.093-162.355 60.723-264.909 60.723-53.402 0-101.888-5.888-144.23-17.306-1.434-0.358-2.816-0.768-4.25-1.229-4.506-1.331-10.138-2.97-15.974-2.97-22.477 0-40.090 17.818-40.090 40.55 0 19.763 11.11 34.867 29.645 40.346 51.098 15.104 109.978 22.682 174.848 22.682 116.787 0 227.994-25.907 304.998-71.219 14.541-8.192 21.658-20.685 21.658-37.99 0-22.323-17.664-39.885-40.141-39.885z" />
<glyph unicode="&#xe667;" d="M512 911.36c-248.883 0-450.56-201.626-450.56-450.56 0-248.781 201.677-450.56 450.56-450.56 248.934 0 450.509 201.728 450.509 450.56 0 248.883-201.523 450.56-450.509 450.56zM690.074 230.298c-8.858 0-15.053 3.379-21.555 7.322-60.877 36.915-136.294 56.269-218.010 56.269-41.677 0-86.682-4.966-133.632-14.592l-5.734-1.434c-5.939-1.434-12.032-3.021-16.691-3.021-18.995 0-33.843 14.746-33.843 33.587 0 19.098 10.752 32.614 28.774 35.994 56.115 12.8 108.954 19.046 161.382 19.046 94.976 0 179.866-22.016 252.467-65.485 12.442-7.27 20.275-15.667 20.275-34.202-0.051-18.483-15.002-33.485-33.434-33.485zM736.819 361.421c-10.598 0-17.562 4.045-23.706 7.629-109.722 65.075-273.050 86.682-407.603 50.842-2.253-0.666-4.301-1.28-6.144-1.894-5.069-1.587-9.779-3.174-16.435-3.174-22.118 0-40.090 18.074-40.090 40.346 0 21.453 11.213 36.454 31.437 42.189 51.866 14.234 100.557 23.654 170.65 23.654 113.254 0 223.078-28.416 309.146-79.923 15.667-8.96 22.784-21.197 22.784-39.475 0-22.221-17.971-40.192-40.038-40.192zM789.862 510.925c-9.984 0-16.128 2.406-25.344 7.373-74.394 44.646-190.464 71.219-310.733 71.219-62.669 0-119.603-6.912-169.267-20.326-1.69-0.41-3.277-0.87-5.018-1.382-5.274-1.587-11.878-3.482-18.688-3.482-26.419 0-47.053 20.89-47.053 47.565 0 23.194 13.005 40.909 34.816 47.36 59.955 17.715 128.973 26.675 205.107 26.675 137.114 0 267.571-30.464 357.939-83.507 16.998-9.677 25.344-24.32 25.344-44.646 0-26.266-20.685-46.848-47.104-46.848z" />
<glyph unicode="&#xe668;" d="M526.643 9.165c-73.165 11.878-139.93 31.078-188.262 47.258-2.355 0.768-39.987 14.438-51.558 18.944-14.234 5.478-21.658 22.067-16.23 36.352 4.403 11.52 19.405 48.589 20.429 50.893 20.48 47.104 51.2 110.234 91.904 173.005 1.485-61.594 15.206-122.829 40.499-179.507 24.576-55.142 59.853-105.267 103.219-146.944zM520.858 613.018c-142.899 291.277-460.288 280.883-510.362 150.682-38.451-99.942 129.792-338.022 516.966-166.093 0.102 0.051 0.102 0.051 0.205 0.102-1.331 2.406-5.837 12.646-6.81 15.309zM591.872 624.384c0.051 0 0.102 0.051 0.102 0.051 218.675 97.126 188.109 265.779 131.533 287.437-76.134 29.133-214.528-83.149-135.526-278.886 0.768-1.382 3.379-7.168 3.891-8.602zM993.946 411.136c-33.075 74.24-93.85 127.437-164.506 152.781-7.117 2.56-14.387 3.738-21.658 3.738-36.71 0-72.038-30.464-75.366-68.506-5.581-63.437 7.014-128.051 34.816-190.362 27.392-61.389 66.253-113.306 116.224-151.398 13.005-9.933 28.928-14.592 44.8-14.592 28.621 0 57.19 15.155 68.557 42.291 29.235 69.734 30.566 151.194-2.867 226.048zM828.006 85.043c-61.184 46.694-109.67 109.517-144.128 186.675-34.918 78.285-49.203 157.44-42.342 235.315 1.894 21.658 8.243 42.547 18.432 61.645-1.792-0.461-5.683-1.382-5.837-1.434-32.154-8.038-63.334-21.965-91.034-40.141-40.141-26.317-75.52-65.382-90.726-111.462-4.096-12.442-7.219-26.112-8.243-39.168-4.864-62.362 5.274-126.771 32.563-187.904 26.419-59.136 65.792-108.442 113.306-146.074 28.979-22.886 81.203-37.376 123.904-37.376 40.090 0 79.667 11.93 115.2 29.952 11.11 5.632 35.584 20.89 37.171 21.965-21.248 5.427-41.165 14.95-58.266 28.006z" />
<glyph unicode="&#xe669;" d="M512 952.32c-271.462 0-491.52-220.058-491.52-491.52s220.058-491.52 491.52-491.52 491.52 220.058 491.52 491.52-220.058 491.52-491.52 491.52zM609.69 622.029c-18.944 0-32.358-18.022-32.358-52.634 0-70.554 44.8-111.155 102.963-111.155 10.291 0 21.862 1.229 33.69 3.942v-54.886c-19.354-4.403-38.81-6.195-54.989-6.298-38.656-81.459-108.186-151.091-131.328-164.25-14.848-8.346-28.723-8.806-44.954 0.922-28.621 17.050-136.602 105.728-172.698 384.41h78.336c19.814-167.322 67.84-252.979 120.986-317.235 29.235 29.235 57.395 68.198 79.462 112.282-52.48 26.726-84.378 85.146-84.378 153.19 0 68.864 39.68 120.934 107.622 120.934 65.894 0 101.939-41.062 101.939-111.667 0-26.317-5.581-56.218-16.077-79.258-48.998-9.626-66.816 21.658-66.816 21.658 3.584 12.083 8.602 32.512 8.602 51.098 0.051 32.768-11.981 48.947-30.003 48.947z" />
<glyph unicode="&#xe66a;" d="M893.542 463.309c-22.426-5.171-44.186-7.424-63.693-7.424-109.824 0-194.406 76.595-194.406 210.022 0 65.382 25.242 99.379 61.030 99.379 33.997 0 56.678-30.515 56.678-92.416 0-35.226-9.421-73.728-16.384-96.614 0 0 33.792-58.982 126.413-40.909 19.712 43.622 30.362 100.147 30.362 149.709 0 133.376-68.096 210.893-192.666 210.893-128.205 0-203.162-98.406-203.162-228.403 0-128.614 60.16-239.002 159.386-289.331-41.728-83.405-94.822-156.928-150.17-212.275-100.403 121.395-191.181 283.341-228.506 599.347h-147.968c68.352-526.285 272.333-693.914 326.298-726.067 30.515-18.33 56.73-17.459 84.685-1.741 43.776 24.832 175.206 156.365 248.166 310.323 30.566 0.102 67.277 3.533 103.936 11.827v103.68z" />
<glyph unicode="&#xe66b;" d="M972.8 102.4v716.8c0 56.32-46.234 102.4-102.656 102.4h-716.288c-58.88 0-102.656-43.674-102.656-102.4v-716.8c0-58.778 43.776-102.4 102.656-102.4h716.288c56.422 0 102.656 46.029 102.656 102.4zM777.421 378.522c0 0 57.958-57.19 72.243-83.712 0.41-0.563 0.563-1.075 0.717-1.28 5.786-9.728 7.27-17.408 4.352-23.040-4.813-9.37-21.197-14.080-26.778-14.49 0 0-99.482 0-102.349 0-7.168 0-22.016 1.843-40.038 14.285-13.824 9.626-27.494 25.549-40.806 41.062-19.866 23.040-37.069 43.008-54.374 43.008-2.202 0-4.403-0.358-6.451-1.075-13.158-4.198-29.85-22.886-29.85-72.806 0-15.616-12.288-24.525-20.992-24.525 0 0-44.646 0-46.899 0-15.974 0-99.174 5.581-172.851 83.354-90.419 95.232-171.622 286.259-172.339 287.949-5.12 12.339 5.478 19.046 16.998 19.046h103.424c13.875 0 18.33-8.397 21.504-15.923 3.584-8.55 17.101-43.059 39.219-81.869 35.994-63.13 58.163-88.832 75.827-88.832 3.277 0 6.451 0.87 9.421 2.509 23.091 12.749 18.79 95.078 17.766 112.077 0 3.226-0.051 36.813-11.827 52.941-8.499 11.674-22.886 16.128-31.59 17.818 2.304 3.328 7.27 8.499 13.619 11.571 15.821 7.885 44.339 9.011 72.704 9.011h15.77c30.771-0.41 38.758-2.406 49.869-5.222 22.477-5.376 22.938-19.968 20.941-69.632-0.563-14.131-1.178-30.157-1.178-48.947 0-4.045-0.154-8.499-0.154-13.107-0.717-25.395-1.536-54.118 16.384-65.894 2.355-1.434 4.966-2.253 7.731-2.253 6.246 0 24.934 0 75.571 86.886 22.272 38.349 39.424 83.61 40.602 86.989 1.024 1.843 4.045 7.27 7.578 9.37 2.867 1.69 6.554 1.997 8.499 1.997h121.6c13.312 0 22.323-1.997 24.013-7.066 2.918-8.141-0.563-32.973-56.115-108.032-9.421-12.442-17.562-23.296-24.73-32.768-50.381-65.946-50.381-69.325 2.97-119.398z" />
<glyph unicode="&#xe66c;" d="M512 952.32c-271.462 0-491.52-220.058-491.52-491.52s220.058-491.52 491.52-491.52 491.52 220.058 491.52 491.52-220.058 491.52-491.52 491.52zM701.030 397.773c0 0 43.469-42.906 54.17-62.822 0.307-0.41 0.461-0.819 0.563-1.024 4.352-7.322 5.376-13.005 3.226-17.254-3.584-7.066-15.872-10.547-20.070-10.854 0 0-74.65 0-76.8 0-5.325 0-16.486 1.382-30.003 10.701-10.394 7.27-20.634 19.2-30.618 30.822-14.899 17.306-27.802 32.256-40.806 32.256-1.638 0-3.328-0.256-4.864-0.768-9.83-3.174-22.426-17.203-22.426-54.579 0-11.674-9.216-18.381-15.718-18.381 0 0-33.536 0-35.174 0-11.981 0-74.394 4.198-129.69 62.515-67.686 71.424-128.614 214.682-129.126 216.013-3.84 9.267 4.096 14.234 12.749 14.234h77.568c10.342 0 13.722-6.298 16.077-11.878 2.765-6.502 12.902-32.358 29.542-61.44 26.982-47.411 43.52-66.662 56.781-66.662 2.509 0 4.813 0.666 7.117 1.843 17.306 9.626 14.080 71.322 13.312 84.122 0 2.406-0.051 27.597-8.909 39.68-6.349 8.755-17.152 12.083-23.706 13.312 1.69 2.509 5.478 6.349 10.189 8.653 11.878 5.939 33.28 6.81 54.528 6.81h11.827c23.040-0.307 28.979-1.792 37.325-3.891 16.896-4.045 17.254-14.95 15.77-52.275-0.461-10.598-0.922-22.579-0.922-36.71 0-3.072-0.154-6.349-0.154-9.83-0.512-18.995-1.126-40.55 12.288-49.408 1.741-1.075 3.738-1.69 5.837-1.69 4.659 0 18.688 0 56.678 65.178 16.64 28.774 29.542 62.72 30.464 65.229 0.768 1.331 3.021 5.427 5.683 7.014 2.099 1.229 4.915 1.485 6.349 1.485h91.187c9.933 0 16.742-1.485 18.022-5.325 2.253-6.093-0.41-24.678-42.035-81.050-7.014-9.318-13.21-17.459-18.586-24.525-37.734-49.459-37.734-51.968 2.355-89.498z" />
<glyph unicode="&#xe66d;" d="M911.462 343.142c0 0 82.79-81.766 103.27-119.603 0.563-0.819 0.819-1.434 0.922-1.792 8.346-13.978 10.394-24.934 6.298-33.024-6.912-13.363-30.31-20.070-38.246-20.634 0 0-142.234 0-146.33 0-10.189 0-31.386 2.662-57.19 20.48-19.712 13.773-39.322 36.454-58.317 58.624-28.365 32.922-52.89 61.491-77.722 61.491-3.174 0-6.246-0.512-9.216-1.536-18.79-5.939-42.65-32.717-42.65-104.038 0-22.323-17.613-35.021-29.952-35.021 0 0-63.898 0-67.021 0-22.835 0-141.722 7.987-247.142 119.142-129.178 136.090-245.197 409.088-246.323 411.494-7.219 17.664 7.936 27.29 24.32 27.29h147.763c19.814 0 26.266-11.981 30.771-22.733 5.222-12.339 24.576-61.696 56.32-117.146 51.405-90.214 82.995-126.925 108.237-126.925 4.762 0 9.267 1.178 13.517 3.584 32.973 18.125 26.829 135.885 25.293 160.154 0 4.71-0.051 52.582-16.947 75.725-12.083 16.589-32.666 23.040-45.107 25.395 3.328 4.813 10.394 12.186 19.456 16.538 22.579 11.264 63.386 12.902 103.885 12.902h22.477c43.93-0.614 55.296-3.43 71.27-7.475 32.154-7.68 32.768-28.518 29.952-99.482-0.819-20.275-1.69-43.11-1.69-69.99 0-5.734-0.256-12.134-0.256-18.637-0.973-36.403-2.253-77.414 23.45-94.259 3.277-2.048 7.117-3.174 11.11-3.174 8.909 0 35.584 0 107.93 124.16 31.744 54.835 56.32 119.501 58.010 124.365 1.434 2.714 5.734 10.342 10.957 13.414 3.994 2.458 9.318 2.867 12.083 2.867h173.824c18.944 0 31.795-2.867 34.304-10.035 4.198-11.622-0.819-47.104-80.179-154.419-13.363-17.869-25.088-33.331-35.379-46.848-71.936-94.413-71.936-99.174 4.25-170.854z" />
<glyph unicode="&#xe66e;" d="M512 952.32c-271.462 0-491.52-220.058-491.52-491.52s220.058-491.52 491.52-491.52 491.52 220.058 491.52 491.52-220.058 491.52-491.52 491.52zM412.826 384c0 0-4.403-8.806-7.834-15.821-3.635-7.066-12.083-9.779-17.766-9.779h-72.397c-12.8 0-12.237 9.779-9.114 16.179 3.226 6.4 4.71 9.421 4.71 9.421l57.6 115.2-32 64c0 0-1.485 3.072-4.71 9.472-3.123 6.4-3.686 16.128 9.114 16.128h72.397c5.683 0 14.131-2.714 17.766-9.728 3.43-7.066 7.834-15.872 7.834-15.872l32-64-57.6-115.2zM718.336 675.072c-3.226-6.4-4.71-9.472-4.71-9.472l-128-256 76.8-153.6c0 0 1.485-3.021 4.71-9.421 3.174-6.4 3.686-16.179-9.114-16.179h-72.397c-5.734 0-14.080 2.714-17.664 9.779-3.533 7.066-7.936 15.821-7.936 15.821l-76.8 153.6 128 256c0 0 4.403 8.806 7.936 15.872s11.878 9.728 17.664 9.728h72.397c12.8 0 12.237-9.728 9.114-16.128z" />
<glyph unicode="&#xe66f;" d="M906.394 921.6h-144.794c-11.418 0-28.314-5.376-35.328-19.507s-15.872-31.693-15.872-31.693l-256-512 153.6-307.2c0 0 8.806-17.613 15.872-31.693s23.91-19.507 35.328-19.507h144.794c25.6 0 24.576 19.507 18.176 32.307s-9.37 18.893-9.37 18.893l-153.6 307.2 256 512c0 0 3.021 6.093 9.421 18.893s7.373 32.307-18.227 32.307zM348.928 697.293c-7.014 14.131-23.91 19.507-35.328 19.507h-144.794c-25.6 0-24.576-19.507-18.176-32.307s9.37-18.893 9.37-18.893l64-128-115.2-230.4c0 0-3.021-6.093-9.421-18.893s-7.373-32.307 18.227-32.307h144.794c11.418 0 28.314 5.427 35.379 19.507 7.014 14.080 15.821 31.693 15.821 31.693l115.2 230.4-64 128c0 0-8.806 17.613-15.872 31.693z" />
<glyph unicode="&#xe670;" d="M641.946 334.285l231.578-75.059c0 0 33.126-6.093 32.768-28.262-0.205-15.616-10.086-33.382-10.086-33.382l-97.792-141.107c0 0-17.459-14.643-35.123-14.643-17.613 0-37.939 27.494-37.939 27.494l-123.75 208.538c0 0-13.926 30.413 2.56 47.155 15.104 15.36 37.786 9.267 37.786 9.267zM592.384 430.080c11.827-20.275 44.544-14.387 44.544-14.387l231.066 68.147c0 0 31.488 12.954 35.994 30.157 4.403 17.254-5.222 38.042-5.222 38.042l-110.438 131.277c0 0-9.574 16.589-29.44 18.278-21.914 1.894-35.379-24.883-35.379-24.883l-130.56-207.36c0.051 0.051-11.469-20.582-0.563-39.27zM483.226 510.925c27.187 6.758 31.539 46.643 31.539 46.643l-1.843 332.032c0 0-4.096 40.96-22.323 52.070-28.621 17.51-37.069 8.397-45.261 7.168l-191.846-71.936c0 0-18.79-6.298-28.57-22.118-13.978-22.374 14.182-55.245 14.182-55.245l199.373-274.33c0 0 19.712-20.531 44.749-14.285zM435.866 376.576c0.666 25.6-30.464 41.011-30.464 41.011l-206.234 105.114c0 0-30.566 12.698-45.414 3.84-11.315-6.758-21.402-19.046-22.374-29.85l-13.414-166.861c0 0-1.997-28.928 5.427-42.086 10.496-18.637 45.107-5.683 45.107-5.683l240.742 53.709c9.318 6.349 25.702 6.963 26.624 40.806zM495.718 286.515c-20.685 10.701-45.414-11.469-45.414-11.469l-161.178-179.098c0 0-20.122-27.392-15.002-44.186 4.813-15.77 12.8-23.603 24.064-29.133l161.894-51.558c0 0 19.61-4.096 34.509 0.256 21.094 6.195 17.203 39.526 17.203 39.526l3.635 242.483c0-0.051-0.819 23.296-19.712 33.178z" />
<glyph unicode="&#xe671;" d="M525.312 461.722c1.69 0.614 3.482 1.075 5.274 1.587-4.25 9.472-8.96 19.302-14.285 29.901-96.256-28.518-188.416-28.774-204.851-28.518-0.154-1.28-0.154-2.611-0.154-3.891 0-48.384 17.408-94.874 49.050-131.379 10.547 16.998 66.458 100.403 164.966 132.301zM390.298 301.414c35.277-27.034 77.414-41.318 121.702-41.318 26.47 0 52.173 5.12 76.493 15.104-3.379 19.507-15.104 78.899-42.086 149.606-108.595-38.4-149.606-110.694-156.109-123.392zM642.816 613.018c-36.403 31.283-82.79 48.486-130.816 48.486-14.541 0-29.133-1.587-43.52-4.813 10.496-14.080 42.598-58.675 72.755-113.818 65.69 25.242 95.386 61.645 101.581 70.144zM496.896 529.203c-31.13 54.886-63.539 100.096-72.448 112.179-54.63-26.47-94.822-77.107-108.186-136.090h0.87c20.787 0 94.669 1.69 179.763 23.91zM589.517 435.405c23.808-66.202 34.765-121.19 37.888-138.803 43.622 30.72 73.421 77.875 82.381 130.202-8.909 2.714-41.062 11.315-81.51 11.315-13.21 0-26.266-0.922-38.758-2.714zM512 952.32c-271.462 0-491.52-220.058-491.52-491.52s220.058-491.52 491.52-491.52 491.52 220.058 491.52 491.52-220.058 491.52-491.52 491.52zM512 220.314c-132.71 0-240.589 107.878-240.589 240.486 0 132.71 107.878 240.589 240.589 240.589 132.659 0 240.538-107.93 240.538-240.589 0-132.608-107.878-240.486-240.538-240.486zM559.206 508.211c4.454-9.216 8.602-18.278 12.39-27.187 1.178-2.918 2.458-5.786 3.635-8.704 14.182 1.69 29.338 2.509 45.158 2.509 43.725 0 80.026-6.4 92.211-8.806-1.126 43.52-16.538 85.811-43.622 119.808-8.192-10.547-41.882-49.306-109.773-77.619z" />
<glyph unicode="&#xe672;" d="M489.728 592.845c-69.53 123.597-143.923 224.41-149.35 231.834-112.179-53.043-195.891-156.416-222.054-280.934 10.547-0.205 178.278-2.202 371.405 49.101zM539.802 457.677c5.222 1.69 10.547 3.277 15.821 4.813-10.086 22.886-21.094 45.824-32.614 68.403-207.155-62.054-405.914-57.549-412.928-57.344-0.154-4.301-0.358-8.499-0.358-12.8 0-103.373 39.066-197.683 103.219-268.902l-0.256 0.307c0 0 110.080 195.277 327.117 265.523zM264.755 143.667v0.205c-2.97 2.304-6.144 4.403-9.114 6.912 5.427-4.352 9.114-7.117 9.114-7.117zM415.642 851.354c-0.358-0.102-0.768-0.205-0.768-0.205 0.307 0.102 0.717 0.102 0.717 0.102l0.051 0.102zM777.677 762.675c-70.861 62.362-163.789 100.403-265.677 100.403-32.717 0-64.41-3.994-94.822-11.315 6.144-8.192 81.664-108.493 150.426-234.701 151.654 56.781 208.947 143.974 210.074 145.613zM512-10.24c-260.096 0-470.989 210.893-470.989 470.989-0.051 260.198 210.842 471.091 470.989 471.091 260.198 0 471.040-210.893 471.040-471.091 0-260.096-210.842-470.989-471.040-470.989zM580.403 394.957c-236.083-82.278-314.061-247.706-315.648-251.085 68.301-53.299 153.907-85.299 247.194-85.299 55.706 0 108.8 11.315 157.030 31.795-5.939 35.277-29.338 158.515-85.965 305.51-0.819-0.307-1.69-0.614-2.611-0.922zM598.528 557.056c9.421-19.098 18.33-38.605 26.778-58.317 3.021-6.912 5.837-13.926 8.704-20.787 138.906 17.51 275.712-12.186 280.218-13.107-0.973 95.386-35.123 182.886-91.494 251.494-0.922-1.178-65.485-94.362-224.205-159.283zM658.483 414.464c52.787-145.203 74.189-263.27 78.285-287.283 90.317 60.979 154.522 157.696 172.39 269.824-7.987 2.56-120.627 38.246-250.675 17.459z" />
<glyph unicode="&#xe673;" d="M512 952.32c-271.462 0-491.52-220.058-491.52-491.52s220.058-491.52 491.52-491.52 491.52 220.058 491.52 491.52-220.058 491.52-491.52 491.52zM628.429 612.659h-73.882c-8.755 0-18.483-11.52-18.483-26.829v-53.35h92.416l-13.978-76.083h-78.438v-228.403h-87.194v228.403h-79.104v76.083h79.104v44.749c0 64.205 44.544 116.378 105.677 116.378h73.882v-80.947z" />
<glyph unicode="&#xe674;" d="M870.4 921.6h-716.8c-56.32 0-102.4-46.080-102.4-102.4v-716.8c0-56.371 46.080-102.4 102.4-102.4h358.4v358.4h-102.4v126.72h102.4v104.96c0 110.797 62.054 188.621 192.819 188.621l92.314-0.102v-133.376h-61.286c-50.893 0-70.246-38.195-70.246-73.626v-86.528h131.482l-29.082-126.669h-102.4v-358.4h204.8c56.32 0 102.4 46.029 102.4 102.4v716.8c0 56.32-46.080 102.4-102.4 102.4z" />
<glyph unicode="&#xe675;" d="M512 952.32c-271.462 0-491.52-220.058-491.52-491.52s220.058-491.52 491.52-491.52 491.52 220.058 491.52 491.52-220.058 491.52-491.52 491.52zM380.723 358.4c-56.115 0-101.478 45.824-101.478 102.4s45.414 102.4 101.478 102.4c56.013 0 101.478-45.824 101.478-102.4s-45.517-102.4-101.478-102.4zM643.328 358.4c-56.064 0-101.53 45.824-101.53 102.4s45.466 102.4 101.53 102.4c56.115 0 101.478-45.824 101.478-102.4s-45.414-102.4-101.478-102.4z" />
<glyph unicode="&#xe676;" d="M256 256c-112.026 0-202.752 91.597-202.752 204.8s90.726 204.8 202.752 204.8c111.974 0 202.752-91.597 202.752-204.8s-90.778-204.8-202.752-204.8zM768 256c-112.026 0-202.752 91.597-202.752 204.8s90.726 204.8 202.752 204.8c111.974 0 202.752-91.597 202.752-204.8s-90.778-204.8-202.752-204.8z" />
<glyph unicode="&#xe677;" d="M512.768 463.411c0 0-0.512 0-0.768 0h-0.768c-60.979 0-114.688 15.514-146.483-13.722-18.995-17.51-26.982-38.605-26.982-61.286 0-94.822 75.93-106.496 173.517-106.496h1.485c97.536 0 173.517 11.725 173.517 106.496 0 22.682-7.987 43.827-26.982 61.286-31.846 29.235-85.555 13.722-146.534 13.722zM429.722 333.824c-18.586 0-33.587 20.89-33.587 46.592s15.002 46.49 33.587 46.49c18.586 0 33.638-20.787 33.638-46.49 0.051-25.702-15.002-46.592-33.638-46.592zM594.227 333.824c-18.586 0-33.638 20.89-33.638 46.592s15.053 46.49 33.638 46.49c18.534 0 33.587-20.787 33.587-46.49 0.051-25.702-15.002-46.592-33.587-46.592zM512 952.32c-271.462 0-491.52-220.058-491.52-491.52s220.058-491.52 491.52-491.52 491.52 220.058 491.52 491.52-220.058 491.52-491.52 491.52zM556.851 259.123c-8.806 0-26.317 0-44.851-0.102-18.534 0.102-36.045 0.102-44.851 0.102-38.912 0-193.126 3.021-193.126 188.877 0 42.701 14.643 73.984 38.656 100.096-3.789 9.421-3.994 63.078 16.384 114.483 0 0 46.899-5.12 117.811-53.811 14.797 4.147 39.987 6.246 65.126 6.246s50.278-2.099 65.178-6.195c70.912 48.691 117.811 53.811 117.811 53.811 20.378-51.405 20.224-105.114 16.384-114.483 24.013-26.112 38.656-57.395 38.656-100.096-0.051-185.958-154.266-188.928-193.178-188.928z" />
<glyph unicode="&#xe678;" d="M674.816 393.779c-36.762 0-66.56-41.318-66.56-92.109 0-50.893 29.798-92.211 66.56-92.211s66.56 41.318 66.56 92.211c-0.051 50.79-29.798 92.109-66.56 92.109zM906.547 633.549c7.629 18.688 7.936 124.877-32.512 226.611 0 0-92.723-10.189-233.011-106.496-29.44 8.192-79.258 12.186-128.973 12.186-49.818 0-99.584-3.994-129.024-12.186-140.339 96.307-233.062 106.496-233.062 106.496-40.397-101.734-39.987-207.923-32.461-226.611-47.514-51.61-76.544-113.613-76.544-198.195 0-367.923 305.306-373.811 382.31-373.811 17.51 0 52.122-0.102 88.781-0.102 36.608 0 71.27 0.102 88.678 0.102 77.107 0 382.31 5.888 382.31 373.811 0 84.582-28.979 146.586-76.493 198.195zM513.434 106.752h-2.867c-193.075 0-343.501 22.989-343.501 210.688 0 45.005 15.872 86.682 53.606 121.293 62.822 57.702 169.216 27.187 289.894 27.187 0.512 0 1.024 0 1.485 0 0.512 0 0.922 0 1.382 0 120.678 0 227.123 30.515 289.997-27.187 37.632-34.611 53.504-76.288 53.504-121.293 0-187.699-150.374-210.688-343.501-210.688zM349.235 393.779c-36.762 0-66.56-41.318-66.56-92.109 0-50.893 29.798-92.211 66.56-92.211 36.813 0 66.611 41.318 66.611 92.211 0 50.79-29.798 92.109-66.611 92.109z" />
</font>
</defs>
</svg>
